Подслушанное, подсмотренное, незаписанное (Иосиф Райхельгауз) [2013 г., Спектакль-импровизация, SATRip] Московский театр "Школа современной пьесы"


 

[Цитировать]

Подслушанное, подсмотренное, незаписанное Название театра: Московский театр "Школа современной пьесы".
Жанр: Спектакль-импровизация.
Год выпуска: 2013.
Продолжительность: 01:51:23.
Режиссер: народный артист России Иосиф Райхельгауз.
В ролях:
Народный артист России Альберт Филозов, народная артистка Ингушетии Татьяна Веденеева, заслуженная артистка РСФСР Елена Санаева, народный артист России Иосиф Райхельгауз, заслуженная артистка России Анжелика Волчкова, Кирилл Емельянов, народный артист России Владимир Шульга, Алексей Гнилицкий, Александр Цой, Николай Голубев, Александр Овчинников, Даниэлла Селицка, заслуженный артист России Максим Евсеев, Максим Спивак, Екатерина Директоренко, Джульетта Геринг, Светлана Кузянина, Руслан Герасименко, Аксинья Гнилицкая, Иван Василевский, Иван Мамонов, Дмитрий Сотириади.
О спектакле:
Спектакль-импровизация на сюжеты, придуманные Евгением Гришковцом. Нет ни одной записанной реплики – все тексты артисты произносят спонтанно, внося в каждый спектакль новые нюансы и создавая неповторимый уникальный текст. Центр зрительного зала превращен в небольшой и уютный зал ресторана. За каждым столиком – своя сценка, свой сюжет, своя история взаимоотношений персонажей и каждый раз неожиданный финал.
Зрители увидят:
Трех старинных друзей, которые никак не могут расплатиться за слишком дорогой ужин. Как разрешится неловкая ситуация?
Пару – немолодого мужчину и юную красавицу. Кем они приходятся друг другу?
Мальчика, который привел свою подружку для знакомства с мамой. Кто из них старше – мама или подруга?
Эксцентричную группу мужчин – сибирского бизнесмена, индуса и переводчика. Сможет ли индийский гость устоять перед русским угощением?
Молодую женщину, у которой бесконечно звонит телефон. Скажет ли она правду хоть одному из своих собеседников?
Двух музыкантов, один из которых занялся бизнесом, а другой все еще исповедует высокие идеалы прекрасного искусства. Кто из них прав?
Загадочную красавицу, одиноко сидящую за угловым столиком. Кого она ждет?
Импозантного официанта. Кто он на самом деле?
Одинокого знаменитого актера, ожидающего гостей на свой юбилей. Придет ли к нему хоть один из приглашенных друзей?

Дополнительная информация:
Страна: Россия .
Выпущено: © Правительство Москвы.
Автор спектакля: Иосиф Райхельгауз.
Авторы: Евгений Гришковец, народный артист России Иосиф Райхельгауз.
Художник: Алексей Трегубов.
Композитор: Фёдор Сенчуков.
Художник по видео: Михаил Заиканов.
Балетмейстер: Светлана Кузянина.
Премьера состоялась 27 марта 2012 года.

О спектакле.
Релиз

Качество видео:...SATRip
Формат:.................AVI
Видео:..720x400 (1.80:1), 25 fps, XviD MPEG-4 ~1614 kbps avg, 0.22 bit/pixel
Аудио:..44.100 kHz, MPEG Layer 3, 2 ch, ~128.00 kbps avg

Отчет Media Info

General
Complete name : Podslushannoe.podsmotrennoe.nezapisannoe_Moskovskij.teatr.Shkola.sovremennoj.p'esy.2013.XviD.SATRip.fenixclub.avi
Format : AVI
Format/Info : Audio Video Interleave
File size : 1.36 GiB
Duration : 1h 51mn
Overall bit rate : 1 753 Kbps
Writing library : VirtualDub build 32842/release
Video
ID : 0
Format : MPEG-4 Visual
Format profile : Advanced Simple@L5
Format settings, BVOP : 2
Format settings, QPel : No
Format settings, GMC : No warppoints
Format settings, Matrix : Default (H.263)
Muxing mode : Packed bitstream
Codec ID : XVID
Codec ID/Hint : XviD
Duration : 1h 51mn
Bit rate : 1 615 Kbps
Width : 720 pixels
Height : 400 pixels
Display aspect ratio : 16:9
Frame rate : 25.000 fps
Color space : YUV
Chroma subsampling : 4:2:0
Bit depth : 8 bits
Scan type : Progressive
Compression mode : Lossy
Bits/(Pixel*Frame) : 0.224
Stream size : 1.26 GiB (92%)
Writing library : XviD 1.2.1 (UTC 2008-12-04)
Audio
ID : 1
Format : MPEG Audio
Format version : Version 1
Format profile : Layer 3
Mode : Joint stereo
Mode extension : MS Stereo
Codec ID : 55
Codec ID/Hint : MP3
Duration : 1h 51mn
Bit rate mode : Constant
Bit rate : 128 Kbps
Channel(s) : 2 channels
Sampling rate : 44.1 KHz
Compression mode : Lossy
Stream size : 102 MiB (7%)
Alignment : Split accross interleaves
Interleave, duration : 40 ms (1.00 video frame)
Interleave, preload duration : 500 ms
Writing library : LAME3.99.5

Скриншот с названием постановки

Скриншоты


Альтернативный хост





Показать сообщения:    

Текущее время: 09-Дек 12:42

Часовой пояс: UTC + 3


Вы не можете начинать темы
Вы не можете отвечать на сообщения
Вы не можете редактировать свои сообщения
Вы не можете удалять свои сообщения
Вы не можете голосовать в опросах
Вы не можете прикреплять файлы к сообщениям
Вы не можете скачивать файлы