(Classical) Бородин – Вся камерная музыка: трио, квартеты, квинтеты / Borodin – Complete Chamber Music (Детисов,Полонский,Сулыга,Бобровский,Осокин,Готгельф,Мндоянц; Московское трио:Иванов,Уткин,Бондурянский) - 2010 (1997), FLAC (image+.cue) lossless


 

[Цитировать]

Бородин – Вся камерная музыка: трио, квартеты, квинтеты / Borodin – Complete Chamber Music (Детисов, Полонский, Сулыга, Бобровский, Осокин, Готгельф, Мндоянц; Московское трио: Иванов, Уткин, Бондурянский)
Жанр: Classical
Страна-производитель диска: ЕС
Год издания диска: 2010 (1997)
Издатель (лейбл): Brilliant Classics [оригинальные диски — Saison Russe (harmonia mundi)]
Номер по каталогу: 93973 (RUS 288141, RUS 288142, RUS 288143)
Дата записи: 1995 — 1996 (так указано на оригинальных обложках; на новой по ошибке — только 1995).
Аудиокодек: FLAC
Тип рипа: image+.cue
Битрейт аудио: lossless
Продолжительность: 01:05:37 + 01:00:17 + 00:56:24
Источник: odeonmusic
Наличие сканов в содержимом раздачи: да
Треклист:
Александр Порфирьевич Бородин (1833 — 1887).
Камерная музыка.
Cd 1.
01 — 04. Струнный квартет № 1 A-dur (1874 — 1879).
05 — 07. Фортепианный квинтет c-moll (1861? — 1862).
Cd 2.
01 — 04. Струнный квартет № 2 D-dur (1881).
05 — 08. Струнный квинтет f-moll (1853/1854, пересмотрен в 1855 — 1860, не окончен).
09. Струнный квартет на тему B-la-f (1886, коллективный): III. Serenata alla spagnola.
Cd 3.
01 — 02. Струнный секстет d-moll (1860/1861, окончание утрачено).
03. Струнное трио g-moll на тему песни «Чем тебя я огорчила» (1854/1855).
04 — 05. Большое струнное трио G-dur (до 1862, не окончено).
06 — 08. Фортепианное трио D-dur (ок. 1860 — 1862?, финал утрачен).

Подробный треклист.

Александр Порфирьевич Бородин (1833 — 1887).
Камерная музыка.
Cd 1.
Струнный квартет № 1 A-dur (1874 — 1879).
01. I. Moderato. — Allegro [13:54].
02. II. Andante con moto. — Fugato. Un poco più mosso. — [Tempo I] [08:30].
03. III. Scherzo. Prestissimo. — Trio. Moderato. — Prestissimo [05:56].
04. IV. Andante. — Allegro risoluto [11:07].

Фортепианный квинтет c-moll (1861? — 1862).

05. I. Andante [05:35].
06. II. Scherzo. Allegro non troppo. — Trio. — Tempo I [05:55].
07. III. Finale. Allegro moderato [14:40].-Cd 2.
Струнный квартет № 2 D-dur (1881).
01. I. Allegro moderato [08:30].
02. II. Scherzo. Allegro [04:54].
03. III. Notturno. Andante. — Più mosso. — Tempo I [08:04].
04. IV. Finale. Andante. — Vivace [06:55].
Квинтет f-moll для двух скрипок, альта и двух виолончелей (1853/1854, пересмотрен в 1855 — 1860, не окончен).
05. I. Allegro con brio [10:45].
06. II. Andante ma non troppo [con due variazioni]. [Третья вариация не дописана] [05:33].
07. III. Menuetto [03:53].
08. IV. Finale. Prestissimo. — Adagio. — Prestissimo. [Кода дописана О.А. Евлаховым] [09:25].
Струнный квартет на тему B-la-f (1886, коллективный: Римский-Корсаков, Лядов, Бородин и Глазунов).
09. III. Serenata alla spagnola. Allegretto [02:18].-Cd 3.
Секстет d-moll для двух скрипок, двух альтов и двух виолончелей (1860/1861, окончание утрачено).
01. I. Allegro [05:29].
02. II. Andante [02:45].
Трио g-moll для двух скрипок и виолончели на тему песни «Чем тебя я огорчила» (1854/1855).
03. [Тема.] Andantino. — [Вариация I.] — [Вариация II.] — [Вариация III.] Risoluto e più vivo. — [Вариация IV.] — [Вариация V.] — [Вариация VI.] Meno mosso. — [Вариация VII.] — [Тема] [07:04].
Большое трио G-dur для двух скрипок и виолончели (до 1862, не окончено).
04. I. Allegro [10:03].
05. II. Andante. [Окончено Г.В. Киркором и Б.В. Доброхотовым] [08:53].
Фортепианное трио D-dur (ок. 1860 — 1862?, финал утрачен).
06. I. Allegro con brio [06:23].
07. II. Romanza. Andante [07:47].
08. III. Intermezzo. Tempo di minuetto [08:00].
Исполнители:
Диски I и II.
Московский струнный квартет (The Moscow String Quartet):
Александр Детисов (I скрипка),
Александр Гельфат (II скрипка),
Игорь Сулыга (альт),
Александр Осокин (виолончель).
Александр Мндоянц (фортепиано, I 5 — 7).
Александр Готгельф (виолончель, II 5 — 8).
Диск III.
Секстет.
Александр Детисов (I скрипка),
Александр Полонский (II скрипка),
Игорь Сулыга (I альт),
Александр Бобровский (II альт),
Александр Осокин (I виолончель),
Александр Готгельф (II виолончель).
Струнные трио.
Александр Детисов (I скрипка),
Александр Полонский (II скрипка),
Александр Осокин (виолончель).
Фортепианное трио.
Московское трио (The Moscow Trio):
Владимир Иванов (скрипка),
Михаил Уткин (виолончель),
Александр Бондурянский (фортепиано).-В старом издании (Saison Russe) написано, что все члены Московского струнного квартета состояли в оркестре «Виртуозы Москвы». Хотя этого же не написано об остальных исполнителях в секстете, судя по всему, это верно и об них — за исключением А.В. Бобровского.-

Логи создания рипаCD 1.

Exact Audio Copy V1.0 beta 3 from 29. August 2011
EAC extraction logfile from 17. February 2014, 13:51
Various Artists / Borodin - Chamber Music - Various Artists (Disc 1)
Used drive : TSSTcorpCDDVDW SH-222BB Adapter: 2 ID: 1
Read mode : Secure
Utilize accurate stream : Yes
Defeat audio cache : Yes
Make use of C2 pointers : No
Read offset correction : 6
Overread into Lead-In and Lead-Out : No
Fill up missing offset samples with silence : Yes
Delete leading and trailing silent blocks : No
Null samples used in CRC calculations : Yes
Used interface : Native Win32 interface for Win NT & 2000
Used output format : User Defined Encoder
Selected bitrate : 1024 kBit/s
Quality : High
Add ID3 tag : No
Command line compressor : C:\Program Files\Exact Audio Copy\Flac\flac.exe
Additional command line options : -8 -V -T "TITLE=%title%" -T "ARTIST=%artist%" -T "ALBUMARTIST=%albumartist%" -T "ALBUM=%albumtitle%" -T "DATE=%year%" -T "TRACKNUMBER=%tracknr%" -T "TRACKTOTAL=%numtracks%" -T "GENRE=%genre%" -T "COMMENT=%comment%" -T "PERFORMER=%albuminterpret%" -T "COMPOSER=%composer%" %source% -o %dest%
TOC of the extracted CD
Track | Start | Length | Start sector | End sector
---------------------------------------------------------
1 | 0:00.00 | 13:52.64 | 0 | 62463
2 | 13:52.64 | 8:30.15 | 62464 | 100728
3 | 22:23.04 | 5:56.13 | 100729 | 127441
4 | 28:19.17 | 11:03.35 | 127442 | 177201
5 | 39:22.52 | 5:34.15 | 177202 | 202266
6 | 44:56.67 | 5:54.63 | 202267 | 228879
7 | 50:51.55 | 14:38.00 | 228880 | 294729
Range status and errors
Selected range
Filename G:\Ripped general\[8147] Borodin – Chamber Music – Various Artists\cd1\Borodin - Chamber Music - Various Artists (Disc 1).wav
Peak level 97.4 %
Extraction speed 7.2 X
Range quality 100.0 %
Test CRC E9AB889E
Copy CRC E9AB889E
Copy OK
No errors occurred
AccurateRip summary
Track 1 accurately ripped (confidence 7) [7ECADC6E] (AR v2)
Track 2 accurately ripped (confidence 7) [29F3F390] (AR v2)
Track 3 accurately ripped (confidence 7) [7DE1D3CB] (AR v2)
Track 4 accurately ripped (confidence 7) [FF4F2EAE] (AR v2)
Track 5 accurately ripped (confidence 7) [71348675] (AR v2)
Track 6 accurately ripped (confidence 7) [492B62AF] (AR v2)
Track 7 accurately ripped (confidence 6) [B409CF5F] (AR v2)
All tracks accurately ripped
End of status report

CD 2.

Exact Audio Copy V1.0 beta 3 from 29. August 2011
EAC extraction logfile from 17. February 2014, 16:04
Various Artists / Borodin - Chamber Music - Various Artists (Disc 2)
Used drive : TSSTcorpCDDVDW SH-222BB Adapter: 2 ID: 1
Read mode : Secure
Utilize accurate stream : Yes
Defeat audio cache : Yes
Make use of C2 pointers : No
Read offset correction : 6
Overread into Lead-In and Lead-Out : No
Fill up missing offset samples with silence : Yes
Delete leading and trailing silent blocks : No
Null samples used in CRC calculations : Yes
Used interface : Native Win32 interface for Win NT & 2000
Used output format : User Defined Encoder
Selected bitrate : 1024 kBit/s
Quality : High
Add ID3 tag : No
Command line compressor : C:\Program Files\Exact Audio Copy\Flac\flac.exe
Additional command line options : -8 -V -T "TITLE=%title%" -T "ARTIST=%artist%" -T "ALBUMARTIST=%albumartist%" -T "ALBUM=%albumtitle%" -T "DATE=%year%" -T "TRACKNUMBER=%tracknr%" -T "TRACKTOTAL=%numtracks%" -T "GENRE=%genre%" -T "COMMENT=%comment%" -T "PERFORMER=%albuminterpret%" -T "COMPOSER=%composer%" %source% -o %dest%
TOC of the extracted CD
Track | Start | Length | Start sector | End sector
---------------------------------------------------------
1 | 0:00.00 | 8:28.50 | 0 | 38149
2 | 8:28.50 | 4:54.31 | 38150 | 60230
3 | 13:23.06 | 8:04.30 | 60231 | 96560
4 | 21:27.36 | 6:55.19 | 96561 | 127704
5 | 28:22.55 | 10:42.35 | 127705 | 175889
6 | 39:05.15 | 5:34.25 | 175890 | 200964
7 | 44:39.40 | 3:53.43 | 200965 | 218482
8 | 48:33.08 | 9:26.60 | 218483 | 260992
9 | 57:59.68 | 2:17.21 | 260993 | 271288
Range status and errors
Selected range
Filename G:\Ripped general\[8147] Borodin – Chamber Music – Various Artists\cd2\Borodin - Chamber Music - Various Artists (Disc 2).wav
Peak level 97.1 %
Extraction speed 7.2 X
Range quality 100.0 %
Test CRC CBFB91AF
Copy CRC CBFB91AF
Copy OK
No errors occurred
AccurateRip summary
Track 1 accurately ripped (confidence 7) [014D1601] (AR v2)
Track 2 accurately ripped (confidence 7) [62EB7666] (AR v2)
Track 3 accurately ripped (confidence 7) [B7F1AE8D] (AR v2)
Track 4 accurately ripped (confidence 7) [E6EEDBAA] (AR v2)
Track 5 accurately ripped (confidence 7) [D11911BA] (AR v2)
Track 6 accurately ripped (confidence 7) [C98B5767] (AR v2)
Track 7 accurately ripped (confidence 7) [76704865] (AR v2)
Track 8 accurately ripped (confidence 7) [D2503E52] (AR v2)
Track 9 accurately ripped (confidence 7) [1BA4CEDA] (AR v2)
All tracks accurately ripped
End of status report

CD 3.

Exact Audio Copy V1.0 beta 3 from 29. August 2011
EAC extraction logfile from 17. February 2014, 16:30
Various Artists / Borodin - Chamber Music - Various Artists (Disc 3)
Used drive : TSSTcorpCDDVDW SH-222BB Adapter: 2 ID: 1
Read mode : Secure
Utilize accurate stream : Yes
Defeat audio cache : Yes
Make use of C2 pointers : No
Read offset correction : 6
Overread into Lead-In and Lead-Out : No
Fill up missing offset samples with silence : Yes
Delete leading and trailing silent blocks : No
Null samples used in CRC calculations : Yes
Used interface : Native Win32 interface for Win NT & 2000
Used output format : User Defined Encoder
Selected bitrate : 1024 kBit/s
Quality : High
Add ID3 tag : No
Command line compressor : C:\Program Files\Exact Audio Copy\Flac\flac.exe
Additional command line options : -8 -V -T "TITLE=%title%" -T "ARTIST=%artist%" -T "ALBUMARTIST=%albumartist%" -T "ALBUM=%albumtitle%" -T "DATE=%year%" -T "TRACKNUMBER=%tracknr%" -T "TRACKTOTAL=%numtracks%" -T "GENRE=%genre%" -T "COMMENT=%comment%" -T "PERFORMER=%albuminterpret%" -T "COMPOSER=%composer%" %source% -o %dest%
TOC of the extracted CD
Track | Start | Length | Start sector | End sector
---------------------------------------------------------
1 | 0:00.00 | 5:26.73 | 0 | 24522
2 | 5:26.73 | 2:45.71 | 24523 | 36968
3 | 8:12.69 | 7:01.14 | 36969 | 68557
4 | 15:14.08 | 10:02.21 | 68558 | 113728
5 | 25:16.29 | 8:51.22 | 113729 | 153575
6 | 34:07.51 | 6:18.52 | 153576 | 181977
7 | 40:26.28 | 7:46.05 | 181978 | 216932
8 | 48:12.33 | 7:58.69 | 216933 | 252851
Range status and errors
Selected range
Filename G:\Ripped general\[8147] Borodin – Chamber Music – Various Artists\cd3\Borodin - Chamber Music - Various Artists (Disc 3).wav
Peak level 96.0 %
Extraction speed 7.0 X
Range quality 100.0 %
Test CRC 92C532E6
Copy CRC 92C532E6
Copy OK
No errors occurred
AccurateRip summary
Track 1 accurately ripped (confidence 7) [03E082F4] (AR v2)
Track 2 accurately ripped (confidence 7) [57853D3F] (AR v2)
Track 3 accurately ripped (confidence 7) [75DECDE6] (AR v2)
Track 4 accurately ripped (confidence 7) [BFFC5A01] (AR v2)
Track 5 accurately ripped (confidence 7) [490AD156] (AR v2)
Track 6 accurately ripped (confidence 7) [A2D8C711] (AR v2)
Track 7 accurately ripped (confidence 7) [087F7BF9] (AR v2)
Track 8 accurately ripped (confidence 7) [CF07A020] (AR v2)
All tracks accurately ripped
End of status report

Содержание индексных карт (.CUE)CD 1.

REM GENRE Classical
REM DISCID 5A0F5907
REM COMMENT "ExactAudioCopy v1.0b3"
PERFORMER "Alexander Mndoiantz & Moscow String Quartet"
TITLE "Borodin – Chamber Music – harmonia mundi (Disc 1)"
FILE "Borodin – Chamber Music – harmonia mundi (Disc 1).flac" WAVE
TRACK 01 AUDIO
TITLE "String Quartet No. 1 in A major - I. Moderato - Allegro"
PERFORMER "Moscow String Quartet"
INDEX 01 00:00:00
TRACK 02 AUDIO
TITLE "String Quartet No. 1 in A major - II. Andante con moto"
PERFORMER "Moscow String Quartet"
INDEX 01 13:52:64
TRACK 03 AUDIO
TITLE "String Quartet No. 1 in A major - III. Scherzo. Prestissimo"
PERFORMER "Moscow String Quartet"
INDEX 01 22:23:04
TRACK 04 AUDIO
TITLE "String Quartet No. 1 in A major - IV. Andante - Allegro risoluto"
PERFORMER "Moscow String Quartet"
INDEX 01 28:19:17
TRACK 05 AUDIO
TITLE "Piano Quintet in C minor - I. Andante"
PERFORMER "Alexander Mndoiantz & Moscow String Quartet"
INDEX 01 39:22:52
TRACK 06 AUDIO
TITLE "Piano Quintet in C minor - II. Scherzo. Allegro non troppo"
PERFORMER "Alexander Mndoiantz & Moscow String Quartet"
INDEX 01 44:56:67
TRACK 07 AUDIO
TITLE "Piano Quintet in C minor - III. Finale. Allegro moderato"
PERFORMER "Alexander Mndoiantz & Moscow String Quartet"
INDEX 01 50:51:55

CD 2.

REM GENRE Classical
REM DISCID 770E2109
REM COMMENT "ExactAudioCopy v1.0b3"
PERFORMER "Moscow String Quartet & Alexander Gotthelf"
TITLE "Borodin – Chamber Music – harmonia mundi (Disc 2)"
FILE "Borodin – Chamber Music – harmonia mundi (Disc 2).flac" WAVE
TRACK 01 AUDIO
TITLE "String Quartet No. 2 in D major - I. Allegro moderato"
PERFORMER "Moscow String Quartet"
INDEX 01 00:00:00
TRACK 02 AUDIO
TITLE "String Quartet No. 2 in D major - II. Scherzo. Allegro"
PERFORMER "Moscow String Quartet"
INDEX 01 08:28:50
TRACK 03 AUDIO
TITLE "String Quartet No. 2 in D major - III. Notturno. Andante"
PERFORMER "Moscow String Quartet"
INDEX 01 13:23:06
TRACK 04 AUDIO
TITLE "String Quartet No. 2 in D major - IV. Finale. Andante - Vivace"
PERFORMER "Moscow String Quartet"
INDEX 01 21:27:36
TRACK 05 AUDIO
TITLE "String Quintet in F minor - I. Allegro con brio"
PERFORMER "Moscow String Quartet & Alexander Gotthelf"
INDEX 01 28:22:55
TRACK 06 AUDIO
TITLE "String Quintet in F minor - II. Andante ma non troppo"
PERFORMER "Moscow String Quartet & Alexander Gotthelf"
INDEX 01 39:05:15
TRACK 07 AUDIO
TITLE "String Quintet in F minor - III. Menuetto"
PERFORMER "Moscow String Quartet & Alexander Gotthelf"
INDEX 01 44:39:40
TRACK 08 AUDIO
TITLE "String Quintet in F minor - IV. Finale. Prestissimo"
PERFORMER "Moscow String Quartet & Alexander Gotthelf"
INDEX 01 48:33:08
TRACK 09 AUDIO
TITLE "Spanish Serenade from the collaborative String Quartet 'B-la-f'"
PERFORMER "Moscow String Quartet"
INDEX 01 57:59:68

CD 3.

REM GENRE Classical
REM DISCID 750D2B08
REM COMMENT "ExactAudioCopy v1.0b3"
PERFORMER "Various Artists"
TITLE "Borodin – Chamber Music – harmonia mundi (Disc 3)"
FILE "Borodin – Chamber Music – harmonia mundi (Disc 3).flac" WAVE
TRACK 01 AUDIO
TITLE "String Sextet in D minor - I. Allegro"
PERFORMER "Various Artists"
INDEX 01 00:00:00
TRACK 02 AUDIO
TITLE "String Sextet in D minor - II. Andante"
PERFORMER "Various Artists"
INDEX 01 05:26:73
TRACK 03 AUDIO
TITLE "Trio for two violins & cello in G minor (on a song 'What have I done to hurt you')"
PERFORMER "Various Artists"
INDEX 01 08:12:69
TRACK 04 AUDIO
TITLE "Trio for two violins & cello in G major - I. Allegro"
PERFORMER "Various Artists"
INDEX 01 15:14:08
TRACK 05 AUDIO
TITLE "Trio for two violins & cello in G major - II. Andante"
PERFORMER "Various Artists"
INDEX 01 25:16:29
TRACK 06 AUDIO
TITLE "Piano Trio in D major - I. Allegro con brio"
PERFORMER "The Moscow Trio"
INDEX 01 34:07:51
TRACK 07 AUDIO
TITLE "Piano Trio in D major - II. Romance. Andante"
PERFORMER "The Moscow Trio"
INDEX 01 40:26:28
TRACK 08 AUDIO
TITLE "Piano Trio in D major - III. Intermezzo. Tempo di minuetto"
PERFORMER "The Moscow Trio"
INDEX 01 48:12:33

CD 3: вариант с выставленными зазорами

REM GENRE Classical
REM DISCID 750D2B08
REM COMMENT "ExactAudioCopy v1.0b3"
PERFORMER "Various Artists"
TITLE "Borodin – Chamber Music – harmonia mundi (Disc 3)"
FILE "Borodin – Chamber Music – harmonia mundi (Disc 3).flac" WAVE
TRACK 01 AUDIO
TITLE "String Sextet in D minor - I. Allegro"
PERFORMER "Various Artists"
INDEX 01 00:00:00
TRACK 02 AUDIO
TITLE "String Sextet in D minor - II. Andante"
PERFORMER "Various Artists"
INDEX 01 05:26:73
TRACK 03 AUDIO
TITLE "Trio for two violins & cello in G minor (on a song 'What have I done to hurt you')"
PERFORMER "Various Artists"
INDEX 01 08:12:69
TRACK 04 AUDIO
TITLE "Trio for two violins & cello in G major - I. Allegro"
PERFORMER "Various Artists"
INDEX 00 15:12:73
INDEX 01 15:14:08
TRACK 05 AUDIO
TITLE "Trio for two violins & cello in G major - II. Andante"
PERFORMER "Various Artists"
INDEX 00 25:15:07
INDEX 01 25:16:29
TRACK 06 AUDIO
TITLE "Piano Trio in D major - I. Allegro con brio"
PERFORMER "The Moscow Trio"
INDEX 00 34:06:33
INDEX 01 34:07:51
TRACK 07 AUDIO
TITLE "Piano Trio in D major - II. Romance. Andante"
PERFORMER "The Moscow Trio"
INDEX 00 40:25:15
INDEX 01 40:26:28
TRACK 08 AUDIO
TITLE "Piano Trio in D major - III. Intermezzo. Tempo di minuetto"
PERFORMER "The Moscow Trio"
INDEX 00 48:11:45
INDEX 01 48:12:33
-Для полноты собрания сюда следовало бы прибавить Скерцо для струнного квартета (первая половина 1880-х) и Виолончельную сонату (1860?; реконструирована М.Э. Гольдштейном [!] по обрывочным наброскам Бородина).-Эта запись Фортепианного трио была выпущена пятью годами ранее на одном диске вместе с трио Римского-Корсакова.



Показать сообщения:    

Текущее время: 04-Дек 09:06

Часовой пояс: UTC + 3


Вы не можете начинать темы
Вы не можете отвечать на сообщения
Вы не можете редактировать свои сообщения
Вы не можете удалять свои сообщения
Вы не можете голосовать в опросах
Вы не можете прикреплять файлы к сообщениям
Вы не можете скачивать файлы