Музыкальный легион. SCOOTER (19.03.2011) Парк развлечений [19.03.2011, SATRip]


Статистика раздачи [Обновить пиров]
Размер:  328 MB   |    Зарегистрирован:  8 месяцев 19 дней   |    Скачан:  0 раз

Полного источника не было: Никогда

Личеров:  3  [  0 KB/s  ]   Подробная статистика пиров
 
   
 
 
 

[Цитировать]

Музыкальный легион. SCOOTER (19.03.2011) Парк развлечений
Дата выпуска: 19.03.2011
Страна: Россия
Продолжительность: 00:25:59
Перевод: Не требуется
Телеканал: Парк развлечений
Описание:
Ведущий - Александр ЛОЕВСКИЙ.
Музыкальный легион - это программа для тех любителей музыки, у которых есть не только уши, но и голова на плечах.
Анализируя творчество немецкой группы SCOOTER трудно найти причины её популярности, более значимые, чем личное обаяние фронтмена группы - Эйч Пи Ба́кстера.
качество: SATRip
формат: AVI
видео: XviD, 640x360 (16:9), 25 fps, ~1627 kbps
аудио: MPEG 1 Layer 3, 48 kHz, 128 kbps CBR, stereo

MediaInfo

Общее
Полное имя : G:\TORRENTS\_свои раздачи\Музыкальный легион. SCOOTER (19.03.2011) Парк развлечений\Музыкальный легион. SCOOTER (19.03.2011) Парк развлечений.avi
Формат : AVI
Формат/Информация : Audio Video Interleave
Размер файла : 328 Мбайт
Продолжительность : 25 м.
Общий поток : 1765 Кбит/сек
Программа кодирования : VirtualDubMod 1.5.10.3 | www.virtualdub-fr.org || (build 2550/release)
Библиотека кодирования : VirtualDubMod build 2550/release
Видео
Идентификатор : 0
Формат : MPEG-4 Visual
Профиль формата : Advanced Simple@L5
Параметр BVOP формата : 2
Параметр QPel формата : Нет
Параметр GMC формата : Без точки перехода
Параметр матрицы формата : Default (H.263)
Идентификатор кодека : XVID
Идентификатор кодека/Подсказка : XviD
Продолжительность : 25 м.
Битрейт : 1627 Кбит/сек
Ширина : 640 пикселей
Высота : 360 пикселей
Соотношение сторон : 16:9
Частота кадров : 25,000 кадров/сек
Цветовое пространство : YUV
Субдискретизация насыщенности : 4:2:0
Битовая глубина : 8 бит
Тип развёртки : Прогрессивная
Метод сжатия : С потерями
Бит/(Пиксели*Кадры) : 0.282
Размер потока : 303 Мбайт (92%)
Библиотека кодирования : XviD 1.2.1 (UTC 2008-12-04)
Аудио
Идентификатор : 1
Формат : MPEG Audio
Версия формата : Version 1
Профиль формата : Layer 3
Идентификатор кодека : 55
Идентификатор кодека/Подсказка : MP3
Продолжительность : 25 м.
Вид битрейта : Постоянный
Битрейт : 128 Кбит/сек
Каналы : 2 канала
Частота : 48,0 КГц
Метод сжатия : С потерями
Размер потока : 23,8 Мбайт (7%)
Выравнивание : Соединение по промежуткам
Продолжительность промежутка : 40 мс. (1,00 видеокадр)
Время предзагрузки промежутка : 504 мс.
Библиотека кодирования : LAME3.98r
Настройки программы : -m s -V 4 -q 2 -lowpass 17 -b 128
[teatrix.ru].t19160.torrent 
Торрент: Зарегистрирован [ 2016-03-18 12:55 ] · 5392C18BE971DE9F7CD9C8F98279448D08A77B8B

Скачать .torrent

Скачать

13 KB

Статус: проверено
Скачан: 0 раз
Размер: 328 MB
terms.php



Быстрый ответ

Имя:

      
Для отправки сообщений необходимо включить JavaScript
Показать сообщения:    

Текущее время: 06-Дек 15:15

Часовой пояс: UTC + 3


Вы можете начинать темы
Вы можете отвечать на сообщения
Вы не можете редактировать свои сообщения
Вы не можете удалять свои сообщения
Вы не можете голосовать в опросах
Вы не можете прикреплять файлы к сообщениям
Вы можете скачивать файлы