Жан-Поль Бельмондо в передаче Кино / Special Cinema: Jean Paul Belmondo (Кристиан Дефэй / Christian Defaye) [1988, документальный, кинематограф, TVRip-AVC] Original (Fre) + Sub Rus (Lisok)


Статистика раздачи [Обновить пиров]
Размер:  141 MB   |    Зарегистрирован:  8 месяцев 20 дней   |    Скачан:  0 раз

Полного источника не было: Никогда

Личеров:  3  [  0 KB/s  ]   Подробная статистика пиров
 
   
 
 
 

[Цитировать]

Жан-Поль Бельмондо в передаче "Кино"
Spécial Cinéma: Jean Paul Belmondo- Дата/Год выпуска: 1988
Страна: Швейцария
Жанр: документальный, кинематограф
Продолжительность: 00:11:39
Перевод: Субтитры
Русские субтитры: есть
Формат субтитров: softsub (SRT)
Доп. информация о субтитрах: перевод Lisok , инициатор Aleks Punk
Оригинальная аудиодорожка: французский
Режиссер: Кристиан Дефэй / Christian Defaye
Телеканал: TSRОписание: 5 декабря 1988 года в еженедельной передаче "Spécial Cinéma" на канале TSR, посвященной прокату в Швейцарии второго совместного фильма Жана-Поля Бельмондо и режиссера Клода Лелуша "Баловень судьбы" (1988), вышедшего через 19 лет после первого их совместного фильма "Человек, который мне нравится" (1969), актер делится эпизодами из своей жизни, мыслями о кинобизнесе и работе в театре.
Ведет передачу Кристиан Дефэй / Christian Defaye.
Доп. информация: За предоставленный материал благодарность Aleks Punk

качество: TVRip-AVC
формат: MKV
Видео: AVC (H.264), 640x480, 25 fps, ~1500 kbps avg, 0.195 bit/pixel
Аудио: AC3, 2 ch, 48 kHz, ~192.00 kbps avg

Пример субтитров

1
00:00:01,540 --> 00:00:07,710
- Это как будто музыка из вестерна?
- А, это вопрос оркестровки.
2
00:00:07,880 --> 00:00:11,570
Да. Для множества инструментов:
нужны валторны...
3
00:00:17,910 --> 00:00:20,000
нужны скрипки...
4
00:00:20,000 --> 00:00:24,050
"Человек, который мне нравится"
Клод Лелуш (1976)
5
00:00:24,050 --> 00:00:26,170
нужны литавры...
6
00:00:29,250 --> 00:00:33,140
а ещё нужна перкуссия
в больших количествах!
7
00:00:34,600 --> 00:00:37,880
Можно добавить, что хочешь:
можешь добавить флейты...
8
00:00:42,280 --> 00:00:45,820
Вот так!
- И когда всё это у нас есть?
9
00:00:45,820 --> 00:00:49,000
Когда всё это есть,
индейцам остаётся только атаковать.
10
00:01:41,050 --> 00:01:43,710
Добрый вечер, дамы и господа.
19 лет назад
11
00:01:43,710 --> 00:01:46,510
состоялась первая встреча
между Лелушем и Бельмондо.
12
00:01:46,510 --> 00:01:48,340
Получился "Человек,
который мне нравится",
13
00:01:48,340 --> 00:01:50,740
отрывок из которого
вы только что увидели.
14
00:01:50,740 --> 00:01:56,020
Вторая часть случилась
в 1988 году - те же Бельмондо и Лелуш,
15
00:01:56,020 --> 00:02:01,020
получился "Баловень судьбы",
показанный в 11 городах Швейцарии.
16
00:02:01,020 --> 00:02:04,400
Можно сказать, что Бельмондо -
единственная кинозвезда,
17
00:02:04,400 --> 00:02:08,020
у которого нет медийного образа,
отдаляющего его от публики.
18
00:02:08,020 --> 00:02:12,680
У каждого из нас есть ощущение,
что если бы мы встретили его в аэропорту,
19
00:02:12,680 --> 00:02:15,620
в бистро, на стадионе,
мы могли бы запросто поговорить,
20
00:02:15,620 --> 00:02:17,910
поболтать о том, о сём.
Есть у него такой аспект приятеля.

MediaInfo

Общее
Уникальный идентификатор : 217376365787820584770722658341852082777 (0xA3892A4B06487089A832C05263D8F259)
Полное имя : E:\My Torrents 2\[apreder]Special_Cinema_Jean_Paul_Belmondo(1988)TVRip.mkv
Формат : Matroska
Версия формата : Version 2
Размер файла : 141 Мбайт
Продолжительность : 11 м.
Общий поток : 1694 Кбит/сек
Дата кодирования : UTC 2014-10-01 16:49:12
Программа кодирования : mkvmerge v7.2.0 ('On Every Street') 64bit built on Sep 13 2014 15:52:10
Библиотека кодирования : libebml v1.3.0 + libmatroska v1.4.1
Видео
Идентификатор : 1
Формат : AVC
Формат/Информация : Advanced Video Codec
Профиль формата : High@L4.1
Параметр CABAC формата : Да
Параметр ReFrames формата : 16 кадров
Идентификатор кодека : V_MPEG4/ISO/AVC
Продолжительность : 11 м.
Битрейт : 1500 Кбит/сек
Ширина : 640 пикселей
Высота : 480 пикселей
Соотношение сторон : 4:3
Режим частоты кадров : Постоянный
Частота кадров : 25,000 кадров/сек
Цветовое пространство : YUV
Субдискретизация насыщенности : 4:2:0
Битовая глубина : 8 бит
Тип развёртки : Прогрессивная
Бит/(Пиксели*Кадры) : 0.195
Размер потока : 122 Мбайт (87%)
Библиотека кодирования : x264 core 142 r2431 ac76440
Настройки программы : cabac=1 / ref=16 / deblock=1:-1:-1 / analyse=0x3:0x133 / me=umh / subme=10 / psy=1 / psy_rd=1.00:0.15 / mixed_ref=1 / me_range=24 / chroma_me=1 / trellis=2 / 8x8dct=1 / cqm=0 / deadzone=21,11 / fast_pskip=1 / chroma_qp_offset=-3 / threads=6 / lookahead_threads=1 / sliced_threads=0 / nr=0 / decimate=1 / interlaced=0 / bluray_compat=0 / constrained_intra=0 / bframes=8 / b_pyramid=2 / b_adapt=2 / b_bias=0 / direct=3 / weightb=0 / open_gop=0 / weightp=2 / keyint=250 / keyint_min=25 / scenecut=40 / intra_refresh=0 / rc_lookahead=60 / rc=2pass / mbtree=1 / bitrate=1500 / ratetol=1.0 / qcomp=0.60 / qpmin=0 / qpmax=69 / qpstep=4 / cplxblur=20.0 / qblur=0.5 / vbv_maxrate=62500 / vbv_bufsize=78125 / nal_hrd=none / filler=0 / ip_ratio=1.40 / aq=1:1.00
Default : Да
Forced : Нет
Аудио
Идентификатор : 2
Формат : AC-3
Формат/Информация : Audio Coding 3
Расширение режима : CM (complete main)
Параметр Endianness формата : Big
Идентификатор кодека : A_AC3
Продолжительность : 11 м.
Вид битрейта : Постоянный
Битрейт : 192 Кбит/сек
Каналы : 2 канала
Расположение каналов : Front: L R
Частота : 48,0 КГц
Битовая глубина : 16 бит
Метод сжатия : С потерями
Размер потока : 16,0 Мбайт (11%)
Язык : French
Default : Да
Forced : Нет
Текст
Идентификатор : 3
Формат : UTF-8
Идентификатор кодека : S_TEXT/UTF8
Идентификатор кодека/Информация : UTF-8 Plain Text
Язык : Russian
Default : Да
Forced : Нет

Скриншоты

Резервные скриншоты

-[1'765]
[teatrix.ru].t19167.torrent 
Торрент: Зарегистрирован [ 2016-03-18 12:44 ] · 0F30C817A287B25B4C6FD57AE6B09A3995C02FF5

Скачать .torrent

Скачать

12 KB

Статус: проверено
Скачан: 0 раз
Размер: 141 MB
terms.php



Показать сообщения:    

Текущее время: 07-Дек 13:36

Часовой пояс: UTC + 3


Вы не можете начинать темы
Вы не можете отвечать на сообщения
Вы не можете редактировать свои сообщения
Вы не можете удалять свои сообщения
Вы не можете голосовать в опросах
Вы не можете прикреплять файлы к сообщениям
Вы можете скачивать файлы