Розенкранц и Гильденстерн мертвы... (Евгений Арье) [1998 г., трагикомедия, WEB-DLRip] Московский академический театр им. Вл. Маяковского


 

[Цитировать]

Розенкранц и Гильденстерн мертвы... Название театра: Московский академический театр им. Вл. Маяковского. Филиал на Сретенке.
Год выпуска: 1998.
Жанр: трагикомедия.
Продолжительность: 02:19:24.
Режиссер-постановщик: Евгений Арье.
Действующие лица и исполнители:
Актер - Сергей Юшкевич,
Гамлет - Тимофей Сополев,
Гертруда - Вера Бабичева,
Гильденстерн - Сергей Голомазов,
Офелия - Екатерина Стулова,
Розенкранц - Игорь Марычев,
Клавдий - Дмитрий Прокофьев,
Полоний - Максим Лагашкин,
Трагик - Сергей Удовик,
Альфред - Константин Константинов,
Слуга - Александр Робак.
О спектакле:
В 1967 году английский драматург Том Стоппард написал пьесу "Розенкранц и Гильденстерн мертвы...". Чаще всего Розенкранц и Гильденстерн, скромные персонажи знаменитой шекспировской трагедии "Гамлет", выглядят на сцене как безмолвные куклы, тупые исполнители королевской воли, едва не погубившие Гамлета. Том Стоппард первым заметил, что не они, а их погубили. Ни за что, просто в силу обстоятельств. В его пьесе Рози и Гиль (так они называют друг друга) - единственные нормальные люди среди обитателей Эльсинора, обуреваемых лишь собственными страстями и комплексами. Они попали туда не по собственной воле и не чают, как из этой петли вырваться. Они смешны и трогательны в своей привязанности друг к другу и в стремлении во что бы то ни стало сохранить естественный порядок вещей.
Дополнительная информация:
Страна: Россия .
Автор пьесы: Том Стоппард.
Перевод: Иосиф Бродский.
Сценография: Дмитрий Крымов.
Музыкальное оформление: Роман Берченко и М. Ливафинос.

Релиз
Рип sharky.

Качество видео:...WEB-DLRip
Формат:.................AVI
Видео:..704x528 (1.33:1), 25 fps, XviD build 47 ~1289 kbps avg, 0.14 bit/pixel
Аудио:..48 kHz, AC3 Dolby Digital, 2/0 (L,R) ch, ~192 kbps

Отчет Media Info

General
Complete name : Rozenkranc.i.Gil'destern_Moskovskij.AT.im.Mayakovskogo.1998.XviD.WEB-DLRip.fenixclub.avi
Format : AVI
Format/Info : Audio Video Interleave
File size : 1.45 GiB
Duration : 2h 19mn
Overall bit rate : 1 492 Kbps
Writing application : VirtualDubMod 1.5.10.2 (build 2540/release)
Writing library : VirtualDubMod build 2540/release
Video
ID : 0
Format : MPEG-4 Visual
Format profile : Advanced Simple@L5
Format settings, BVOP : 1
Format settings, QPel : No
Format settings, GMC : No warppoints
Format settings, Matrix : Default (H.263)
Codec ID : XVID
Codec ID/Hint : XviD
Duration : 2h 19mn
Bit rate : 1 290 Kbps
Width : 704 pixels
Height : 528 pixels
Display aspect ratio : 4:3
Frame rate : 25.000 fps
Color space : YUV
Chroma subsampling : 4:2:0
Bit depth : 8 bits
Scan type : Progressive
Compression mode : Lossy
Bits/(Pixel*Frame) : 0.139
Stream size : 1.26 GiB (86%)
Writing library : XviD 1.2.0.dev47 (UTC 2006-11-01)
Audio
ID : 1
Format : AC-3
Format/Info : Audio Coding 3
Mode extension : CM (complete main)
Format settings, Endianness : Big
Codec ID : 2000
Duration : 2h 19mn
Bit rate mode : Constant
Bit rate : 192 Kbps
Channel(s) : 2 channels
Channel positions : Front: L R
Sampling rate : 48.0 KHz
Bit depth : 16 bits
Compression mode : Lossy
Stream size : 191 MiB (13%)
Alignment : Split accross interleaves
Interleave, duration : 40 ms (1.00 video frame)
Interleave, preload duration : 500 ms

Скриншоты


Альтернативный хост





Показать сообщения:    

Текущее время: 08-Дек 21:12

Часовой пояс: UTC + 3


Вы не можете начинать темы
Вы не можете отвечать на сообщения
Вы не можете редактировать свои сообщения
Вы не можете удалять свои сообщения
Вы не можете голосовать в опросах
Вы не можете прикреплять файлы к сообщениям
Вы не можете скачивать файлы