(Baroque sacred) Charpentier - Te Deum / Messe de Minuit de Noel (King's College Choir, Academy of St. Martin in the Fields, English Chamber Orchestra / Philip Ledger, David Willcocks) - 1989, FLAC (image+.cue) lossless


Статистика раздачи [Обновить пиров]
Размер:  274 MB   |    Зарегистрирован:  8 месяцев 20 дней   |    Скачан:  0 раз

Полного источника не было: Никогда

Личеров:  76  [  0 KB/s  ]   Подробная статистика пиров
 
   
 
 
 

[Цитировать]

Charpentier: Te Deum / Messe de Minuit de Noël

Жанр: Baroque sacred
Страна-производитель диска: Made in West Germany
Год издания диска: 1989 CD, 1978 LP
Издатель (лейбл): EMI Records Ltd.
Номер по каталогу: CDM 63135 2
Дата записи: 1967
Аудиокодек: FLAC
Тип рипа: image+.cue
Битрейт аудио: lossless
Продолжительность: 59'58
Источник: релизер
сайт-источник/ник/другое: собственная коллекция
Наличие сканов в содержимом раздачи: да
Треклист:

скрытый текст

1. Te Deum, motet for 8 voices, chorus & orchestra, H. 146: 1. Prélude
2. 2. Te Deum laudamus
3. 3. Te aeternum Patrem
4. 4. Pleni sunt coeli et terra
5. 5. Te per orbem terrarum
6. 6. Tu devicto mortis aculeo
7. 7. Judex crederis
8. 8. Te ergo quaesumus
9. 9. Aeterna fac cum sanctis
10. Te Deum, motet for 8 voices, chorus & orchestra, H. 146: 10. Dignare Domine
11. 11. Fiat misericordia
12. 12. In te Domine speravi
13. Messe de minuit, for 5 voices, chorus, instruments & continuo, H. 9: 1. Kyrie
14. 2. Gloria
15. 3. Credo
16. 4. Offertoire
17. 5. Sanctus
18. 6. Agnus Dei
Исполнители:

скрытый текст

Marc-Antoine Charpentier
Te Deum / Messe de Minuit de Noël
King's College Choir
Academy of St. Martin in the Fields, English Chamber Orchestra
Conductor: Philip Ledger, David Willcocks
Audio CD (July 18, 1989)

Лог создания рипа

Exact Audio Copy V1.0 beta 3 from 29. August 2011
EAC extraction logfile from 16. June 2012, 13:07
- / M.A.Charpentier - Te Deum; Messe de Minuit pour Noel - Ledger, Willcocks
Used drive : HL-DT-STDVDRAM GSA-H10A Adapter: 0 ID: 0
Read mode : Secure
Utilize accurate stream : Yes
Defeat audio cache : Yes
Make use of C2 pointers : No
Read offset correction : 667
Overread into Lead-In and Lead-Out : No
Fill up missing offset samples with silence : Yes
Delete leading and trailing silent blocks : No
Null samples used in CRC calculations : Yes
Used interface : Native Win32 interface for Win NT & 2000
Used output format : User Defined Encoder
Selected bitrate : 1024 kBit/s
Quality : High
Add ID3 tag : No
Command line compressor : C:\Program Files\Exact Audio Copy\Flac\flac.exe
Additional command line options : -8 -V -T "TITLE=%title%" -T "ARTIST=%artist%" -T "ALBUMARTIST=%albumartist%" -T "ALBUM=%albumtitle%" -T "DATE=%year%" -T "TRACKNUMBER=%tracknr%" -T "TRACKTOTAL=%numtracks%" -T "GENRE=%genre%" -T "COMMENT=%comment%" -T "PERFORMER=%albuminterpret%" -T "COMPOSER=%composer%" %source% -o %dest%
TOC of the extracted CD
Track | Start | Length | Start sector | End sector
---------------------------------------------------------
1 | 0:00.33 | 1:45.57 | 33 | 7964
2 | 1:46.15 | 1:18.48 | 7965 | 13862
3 | 3:04.63 | 1:55.10 | 13863 | 22497
4 | 4:59.73 | 2:20.10 | 22498 | 33007
5 | 7:20.08 | 3:19.37 | 33008 | 47969
6 | 10:39.45 | 1:07.33 | 47970 | 53027
7 | 11:47.03 | 0:51.27 | 53028 | 56879
8 | 12:38.30 | 2:08.23 | 56880 | 66502
9 | 14:46.53 | 3:12.57 | 66503 | 80959
10 | 17:59.35 | 2:03.43 | 80960 | 90227
11 | 20:03.03 | 1:51.10 | 90228 | 98562
12 | 21:54.13 | 3:31.50 | 98563 | 114437
13 | 25:25.63 | 6:27.35 | 114438 | 143497
14 | 31:53.23 | 6:11.60 | 143498 | 171382
15 | 38:05.08 | 11:25.45 | 171383 | 222802
16 | 49:30.53 | 4:45.02 | 222803 | 244179
17 | 54:15.55 | 2:48.65 | 244180 | 256844
18 | 57:04.45 | 2:54.28 | 256845 | 269922
Range status and errors
Selected range
Filename F:\Ripped general\[0852] M.A.Charpentier - Te Deum; Messe de Minuit pour Noel - Ledger, Willcocks\M.A.Charpentier - Te Deum; Messe de Minuit pour Noel - Ledger, Willcocks.wav
Peak level 79.0 %
Extraction speed 7.5 X
Range quality 100.0 %
Test CRC 7D9D64F0
Copy CRC 7D9D64F0
Copy OK
No errors occurred
AccurateRip summary
Track 1 accurately ripped (confidence 8) [96DB44B1] (AR v1)
Track 2 accurately ripped (confidence 8) [F5881977] (AR v1)
Track 3 accurately ripped (confidence 8) [573955E5] (AR v1)
Track 4 accurately ripped (confidence 8) [97D6C88E] (AR v1)
Track 5 accurately ripped (confidence 8) [BF3E3FB4] (AR v1)
Track 6 accurately ripped (confidence 8) [FBB1BDE0] (AR v1)
Track 7 accurately ripped (confidence 8) [E64AD96A] (AR v1)
Track 8 accurately ripped (confidence 8) [241557C2] (AR v1)
Track 9 accurately ripped (confidence 8) [4A440F9F] (AR v1)
Track 10 accurately ripped (confidence 8) [19604EF0] (AR v1)
Track 11 accurately ripped (confidence 8) [6D81BD3B] (AR v1)
Track 12 accurately ripped (confidence 8) [3D48F598] (AR v1)
Track 13 accurately ripped (confidence 8) [EFF1762C] (AR v1)
Track 14 accurately ripped (confidence 8) [C9EEC4F3] (AR v1)
Track 15 accurately ripped (confidence 8) [40156B99] (AR v1)
Track 16 accurately ripped (confidence 8) [FEF92E27] (AR v1)
Track 17 accurately ripped (confidence 8) [86735A29] (AR v1)
Track 18 accurately ripped (confidence 7) [26AC1962] (AR v1)
All tracks accurately ripped
End of status report
[teatrix.ru].t19169.torrent 
Торрент: Зарегистрирован [ 2016-03-18 12:49 ] · F342CBEB5A1D20BE007C2298AB85E2674F9C8C4D

Скачать .torrent

Скачать

12 KB

Статус: проверено
Скачан: 0 раз
Размер: 274 MB
terms.php



Быстрый ответ

Имя:

      
Для отправки сообщений необходимо включить JavaScript
Показать сообщения:    

Текущее время: 08-Дек 05:17

Часовой пояс: UTC + 3


Вы можете начинать темы
Вы можете отвечать на сообщения
Вы не можете редактировать свои сообщения
Вы не можете удалять свои сообщения
Вы не можете голосовать в опросах
Вы не можете прикреплять файлы к сообщениям
Вы можете скачивать файлы