День рождения / Syntymä päivä (Яри Ваара / Jari Vaara) [2010, Финляндия, авторская анимация, WEBRip]


 

[Цитировать]

День рождения / Syntymä päivä
Страна: Финляндия
Жанр: авторская анимация
Год выпуска: 2010
Продолжительность: 00:04:21
Перевод: не требуется
Cубтитры: нет
Режиссёр: Яри Ваара / Jari Vaara
Описание: На день рождения мать дарит сыну велотренажёр, предназначенный для адаптации к окружающей действительности. Сынок поначалу не проявляет радости, но после должной обработки всё становится на свои места.
Доп. информация: Metropolia prize - "Animatricks" (2011)
The best debut - "Tofuzi" (2011)
The best film up 10 minutes - Libelula animation festival (2012)
Качество видео: WEBRip
Формат видео: AVI
Видео: 2314 kbps, 688х384 (16:9), 25.000 fps, MPEG-4 (XviD)
Аудио: 128 kbps, 48.0 kHz, 2 channels, MPEG Audio (MP3)

MediaInfo

General
Complete name : Syntyma paiva (2010).avi
Format : AVI
Format/Info : Audio Video Interleave
File size : 76.4 MiB
Duration : 4mn 21s
Overall bit rate : 2 452 Kbps
Writing application : VirtualDubMod 1.5.10.3 (build 2550/release)
Writing library : VirtualDubMod build 2550/release
Video
ID : 0
Format : MPEG-4 Visual
Format profile : Advanced Simple@L5
Format settings, BVOP : 2
Format settings, QPel : No
Format settings, GMC : No warppoints
Format settings, Matrix : Custom
Codec ID : XVID
Codec ID/Hint : XviD
Duration : 4mn 21s
Bit rate : 2 314 Kbps
Width : 688 pixels
Height : 384 pixels
Display aspect ratio : 16:9
Frame rate : 25.000 fps
Color space : YUV
Chroma subsampling : 4:2:0
Bit depth : 8 bits
Scan type : Progressive
Compression mode : Lossy
Bits/(Pixel*Frame) : 0.350
Stream size : 72.1 MiB (94%)
Writing library : XviD 65
Audio
ID : 1
Format : MPEG Audio
Format version : Version 1
Format profile : Layer 3
Mode : Joint stereo
Mode extension : MS Stereo
Codec ID : 55
Codec ID/Hint : MP3
Duration : 4mn 21s
Bit rate mode : Constant
Bit rate : 128 Kbps
Channel(s) : 2 channels
Sampling rate : 48.0 KHz
Compression mode : Lossy
Stream size : 3.99 MiB (5%)
Alignment : Aligned on interleaves
Interleave, duration : 40 ms (1.00 video frame)
Interleave, preload duration : 504 ms
Writing library : LAME3.99r
Encoding settings : -m j -V 4 -q 3 -lowpass 17 -b 128

Скриншот c названием фильма

Скриншоты




Показать сообщения:    

Текущее время: 07-Дек 23:19

Часовой пояс: UTC + 3


Вы не можете начинать темы
Вы не можете отвечать на сообщения
Вы не можете редактировать свои сообщения
Вы не можете удалять свои сообщения
Вы не можете голосовать в опросах
Вы не можете прикреплять файлы к сообщениям
Вы не можете скачивать файлы