(Classical, contemporary) Brian Ferneyhough - Funerailles; Bone Alphabet; Unsichtbare Farben - Irvine Arditti, Christian Dierstein, Arditti String Quartet, ensemble recherche, Lucas Vis - 2006, FLAC (image+.cue) lossless


 

[Цитировать]

Brian Ferneyhough - Funérailles; Bone Alphabet; Unsichtbare Farben - Irvine Arditti, Christian Dierstein, Arditti String Quartet, ensemble recherche, Lucas Vis
Жанр: Classical, contemporary
Страна-производитель диска: Italy
Год издания диска: 2006
Издатель (лейбл): Stradivarius
Номер по каталогу: STR 33739
Дата записи: 2004, 2005
Аудиокодек: FLAC
Тип рипа: image+.cue
Битрейт аудио: lossless
Продолжительность: 49:39
Источник: собственный рип
Наличие сканов в содержимом раздачи: да
Треклист:
Brian Ferneyhough
[1] Funérailles I (1969-77)
for 7 strings and harp
[2] Bone Alphabet (1991)
for percussion
[3] Unsichtbare Farben (1999)
for violin
[4] Funérailles II (1969-80)
for 7 strings and harp
Исполнители:
Irvine Arditti violin
Christian Dierstein percussion
Arditti String Quartet
ensemble recherche
Lucas Vis
conductor

Лог создания рипа

Exact Audio Copy V1.0 beta 3 from 29. August 2011
EAC extraction logfile from 25. September 2014, 20:45
ensemble recherche, Arditti String Quartet, Lucas Vis / Ferneyhough - Funerailles
Used drive : HL-DT-STDVDRAM GU70N Adapter: 0 ID: 0
Read mode : Secure
Utilize accurate stream : Yes
Defeat audio cache : Yes
Make use of C2 pointers : No
Read offset correction : 48
Overread into Lead-In and Lead-Out : No
Fill up missing offset samples with silence : Yes
Delete leading and trailing silent blocks : No
Null samples used in CRC calculations : Yes
Used interface : Native Win32 interface for Win NT & 2000
Used output format : User Defined Encoder
Selected bitrate : 128 kBit/s
Quality : High
Add ID3 tag : No
Command line compressor : C:\Program Files (x86)\Exact Audio Copy\Flac\flac.exe
Additional command line options : -V -8 -T "Date=%year%" -T "Genre=%genre%" %source%
TOC of the extracted CD
Track | Start | Length | Start sector | End sector
---------------------------------------------------------
1 | 0:00.00 | 11:11.50 | 0 | 50374
2 | 11:11.50 | 13:06.22 | 50375 | 109346
3 | 24:17.72 | 12:44.11 | 109347 | 166657
4 | 37:02.08 | 12:25.45 | 166658 | 222577
Range status and errors
Selected range
Filename C:\temp\Ferneyhough - Funerailles\Ferneyhough - Funerailles.wav
Peak level 98.8 %
Extraction speed 5.0 X
Range quality 100.0 %
Test CRC 4696E395
Copy CRC 4696E395
Copy OK
No errors occurred
AccurateRip summary
Track 1 accurately ripped (confidence 3) [5B697DAA] (AR v1)
Track 2 accurately ripped (confidence 3) [A179F7AA] (AR v1)
Track 3 accurately ripped (confidence 3) [A6C7E8EF] (AR v1)
Track 4 accurately ripped (confidence 3) [4B430C0C] (AR v1)
All tracks accurately ripped
End of status report
==== Log checksum 8790CD91D4B6A28BBE6CA31EFA1C362FD07D45B09941D46AF52B40A123A595B9 ====



Показать сообщения:    

Текущее время: 03-Дек 05:28

Часовой пояс: UTC + 3


Вы не можете начинать темы
Вы не можете отвечать на сообщения
Вы не можете редактировать свои сообщения
Вы не можете удалять свои сообщения
Вы не можете голосовать в опросах
Вы не можете прикреплять файлы к сообщениям
Вы не можете скачивать файлы