Гиганты горы (Евгений Каменькович, Полина Агуреева) [2014 г., миф, SATRip] Московский театр "Мастерская Петра Фоменко"


 

[Цитировать]

Гиганты горы Название театра: Московский театр "Мастерская Петра Фоменко".
Год выпуска: 2014 .
Жанр: Незаконченный миф об искусстве в 4 мгновениях.
Продолжительность: 01:40:46.
Режиссеры: Евгений Каменькович, Полина Агуреева.
Действующие лица и исполнители:
Труппа Графини:
Илсе, графиня
- Полина Агуреева,
Граф, её муж - Юрий Буторин,
Диаманте, вторая актриса - Ирина Горбачева,
Кромо, характерный актер - Дмитрий Захаров,
Спицци, молодой актер с повозкой - Амбарцум Кабанян,
Батталья, играет и мужчин, и женщин - Владимир Свирский,
Котроне, маг - Федор Малышев,
Обитатели виллы "Скалонья":
Кваквео - Николай Орловский,
Дуччо-Дочча - Дмитрий Рудков,
Ла Згрича - Моника Санторо,
Милордино - Степан Пьянков,
Мара-Мара с зонтиком, или Шотландка - Елена Ворончихина,
Магдалина - Акином Оротнас.
О спектакле:
"Гиганты горы", последняя и незаконченная пьеса Луиджи Пиранделло.
Время и место неопределенны: на грани между реальностью и сказкой.
На некую виллу, где живет компания фриков во главе с магом Котроне, является актерская труппа. И начинается рискованная игра обитателей виллы с лицедеями, где фантазия порой становится важнее реальности. А Котроне к тому же окружает пространство системой зеркал, все превращающих в иллюзию.
"Я думаю, что жизнь - это очень грустная буффонада, - писал Пиранделло, - поскольку в нас сидит неизвестно как, почему и откуда взявшаяся потребность постоянно обманывать самих себя, внезапно создавая реальность, а потом постепенно обнаруживать, что она тщетна и иллюзорна. Тот, кто понял эту игру, никогда уже не сможет обманываться, но тот, кто не может обманываться, никогда уже не воспримет ни вкуса, ни радости жизни. Вот так".

Дополнительная информация:
Страна: Россия .
Выпущено: "Культу.Ру!".
Режиссеры-постановщики спектакля: Евгений Каменькович, Полина Агуреева.
Автор: Луиджи Пиранделло.
Перевод: Елена Касаткина.
Сценография: Мария Митрофанова.
Костюмы: Евгения Панфилова.
Свет и тени: Владислав Фролов.
Музыкальное оформление: Николай Орловский, Денис Забияка.
Маски: Ирина Бачурина.
Видеоряд: Владимир Бровкин, Екатерина Бурлакова.
Пластика: Рамуне Ходоркайте.
Грим: Анна Мелешко, Лариса Герасимчук.
Премьера спектакля состоялась 15 апреля 2014 года.
Режиссер телеверсии: Александр Смирнов.
Оператор-постановщик: Владимир Иванов.

О спектакле.
Релиз

Качество видео:...SATRip
Формат:.................AVI
Видео:..720x400 (1.80:1), 25 fps, XviD MPEG-4 ~1936 kbps avg, 0.27 bit/pixel
Аудио:..44.100 kHz, MPEG Layer 3, 2 ch, ~128.00 kbps avg

Отчет MI

Общее
Полное имя : Giganty.gory_Masterskkaya.Fomenko.2014.XviD.SATRip.fenixclub.avi
Format : AVI
Format/Info : Audio Video Interleave
File size : 1.46 GiB
Duration : 1h 40mn
Overall bit rate : 2 074 Kbps
Writing application : VirtualDubModRus 1.5.10.2 (build 2542/release)
Writing library : VirtualDubMod build 2542/release
Video
ID : 0
Format : MPEG-4 Visual
Format profile : Advanced Simple@L5
Format settings, BVOP : 2
Format settings, QPel : No
Format settings, GMC : No warppoints
Format settings, Matrix : Default (MPEG)
Muxing mode : Packed bitstream
Codec ID : XVID
Codec ID/Hint : XviD
Duration : 1h 40mn
Bit rate : 1 936 Kbps
Width : 720 pixels
Height : 400 pixels
Display aspect ratio : 16:9
Frame rate : 25.000 fps
Color space : YUV
Chroma subsampling : 4:2:0
Bit depth : 8 bits
Scan type : Progressive
Compression mode : Lossy
Bits/(Pixel*Frame) : 0.269
Stream size : 1.36 GiB (93%)
Writing library : XviD 64
Audio
ID : 1
Format : MPEG Audio
Format version : Version 1
Format profile : Layer 3
Codec ID : 55
Codec ID/Hint : MP3
Duration : 1h 40mn
Bit rate mode : Constant
Bit rate : 128 Kbps
Channel(s) : 2 channels
Sampling rate : 44.1 KHz
Compression mode : Lossy
Stream size : 92.3 MiB (6%)
Alignment : Split accross interleaves
Interleave, duration : 40 ms (1.00 video frame)
Interleave, preload duration : 500 ms
Writing library : LAME3.99r
Encoding settings : -m s -V 4 -q 2 -lowpass 17 -b 128

Скриншоты


Альтернативный хост





Показать сообщения:    

Текущее время: 07-Дек 15:29

Часовой пояс: UTC + 3


Вы не можете начинать темы
Вы не можете отвечать на сообщения
Вы не можете редактировать свои сообщения
Вы не можете удалять свои сообщения
Вы не можете голосовать в опросах
Вы не можете прикреплять файлы к сообщениям
Вы не можете скачивать файлы