(Vocal) Placido Domingo - Entre Dos Mundos - 1992, FLAC (image+.cue) lossless


 

[Цитировать]

Placido Domingo - Entre Dos Mundos
Жанр: Vocal
Страна-производитель диска: Spain
Год издания диска: 1992
Издатель (лейбл): Sony Music Intertainment (Spain)
Номер по каталогу: SK 48 479
Дата записи: 1992
Аудиокодек: FLAC
Тип рипа: image+.cue
Битрейт аудио: lossless
Продолжительность: 67'33''
Источник: собственный рип
Наличие сканов в содержимом раздачи: да
Треклист:
CD: Placido Domingo - Entre Dos Mundos
01. Sevilla [0:04:28.42]
02. El Grito de America [0:04:28.48]
03. Andalucia [0:02:52.20]
04. Soñadores de España [0:05:28.12]
05. Malagueña [0:03:25.10]
06. Te quiero Morena [0:02:38.45]
07. Siboney [0:03:39.45]
08. Amor, Mi Raza Sabe Conquistar [0:06:23.53]
09. Adios Mariquita Linda [0:02:45.65]
10. Maria La O [0:03:28.12]
11. Serenata Tapatia [0:02:23.33]
12. De Este Apacible Rincon [0:03:13.05]
13. Un Viejo Amor [0:03:02.35]
14. Cancion para una Reina [0:05:10.07]
15. Damisela Encantadora [0:03:31.35]
16. Adoro [0:03:25.58]
17. Yo Sere Tu Primer Hombre [0:03:54.15]
18. Canto Karabali [0:03:12.07]
Исполнители:
Featuring with
Paco de Lucia
Julio Iglesias
The Royal Philharmonic Orchestra - Lee Holdridge, director
and more others ...

Лог создания рипа

Exact Audio Copy V1.0 beta 3 from 29. August 2011
Отчёт EAC об извлечении, выполненном 1. октября 2014, 12:26
Placido Domingo / Entre Dos Mundos
Дисковод: ATAPI iHAS122 C Adapter: 2 ID: 1
Режим чтения : Достоверность
Использование точного потока : Да
Отключение кэша аудио : Да
Использование указателей C2 : Нет
Коррекция смещения при чтении : 6
Способность читать области Lead-in и Lead-out : Нет
Заполнение пропущенных сэмплов тишиной : Да
Удаление блоков с тишиной в начале и конце : Нет
При вычислениях CRC использовались нулевые сэмплы : Да
Интерфейс : Встроенный Win32-интерфейс для Win NT/2000
Выходной формат : Пользовательский кодировщик
Выбранный битрейт : 768 kBit/s
Качество : Высокий
Добавление ID3-тега : Нет
Утилита сжатия : C:\Program Files\Exact Audio Copy\FLAC\FLAC.EXE
Дополнительные параметры : -6 -V -T "ARTIST=%artist%" -T "TITLE=%title%" -T "ALBUM=%albumtitle%" -T "DATE=%year%" -T "TRACKNUMBER=%tracknr%" -T "GENRE=%genre%" -T "COMMENT=%comment%" -T "BAND=%albuminterpret%" -T "ALBUMARTIST=%albuminterpret%" -T "COMPOSER=%composer%" %haslyrics%--tag-from-file=LYRICS="%lyricsfile%"%haslyrics% -T "DISCNUMBER=%cdnumber%" -T "TOTALDISCS=%totalcds%" -T "TOTALTRACKS=%numtracks%" %hascover%--picture="%coverfile%"%hascover% %source% -o %dest%
TOC извлечённого CD
Трек | Старт | Длительность | Начальный сектор | Конечный сектор
---------------------------------------------------------------------
1 | 0:00.00 | 4:28.42 | 0 | 20141
2 | 4:28.42 | 4:28.48 | 20142 | 40289
3 | 8:57.15 | 2:52.20 | 40290 | 53209
4 | 11:49.35 | 5:28.12 | 53210 | 77821
5 | 17:17.47 | 3:25.10 | 77822 | 93206
6 | 20:42.57 | 2:38.45 | 93207 | 105101
7 | 23:21.27 | 3:39.45 | 105102 | 121571
8 | 27:00.72 | 6:23.53 | 121572 | 150349
9 | 33:24.50 | 2:45.65 | 150350 | 162789
10 | 36:10.40 | 3:28.12 | 162790 | 178401
11 | 39:38.52 | 2:23.33 | 178402 | 189159
12 | 42:02.10 | 3:13.05 | 189160 | 203639
13 | 45:15.15 | 3:02.35 | 203640 | 217324
14 | 48:17.50 | 5:10.07 | 217325 | 240581
15 | 53:27.57 | 3:31.35 | 240582 | 256441
16 | 56:59.17 | 3:25.58 | 256442 | 271874
17 | 60:25.00 | 3:54.15 | 271875 | 289439
18 | 64:19.15 | 3:12.07 | 289440 | 303846
Характеристики диапазона извлечения и сообщения об ошибках
Выбранный диапазон
Имя файла D:\Torrent Lossless\Placido Domingo - Entre Dos Mundos - 1992 - 67'33''\Placido Domingo - Entre Dos Mundos.wav
Пиковый уровень 97.7 %
Скорость извлечения 3.7 X
Качество диапазона 100.0 %
CRC теста 569768D2
CRC копии 569768D2
Копирование... OK
Ошибок не произошло
AccurateRip: сводка
Трек 1 точность не определена (достоверность 3) [985C9580], AccurateRip вернул [D858BE06] (AR v2)
Трек 2 точность не определена (достоверность 3) [9D2EBD76], AccurateRip вернул [6F107BC2] (AR v2)
Трек 3 точность не определена (достоверность 3) [AE73E909], AccurateRip вернул [A462D7F6] (AR v2)
Трек 4 точность не определена (достоверность 3) [D0E2487D], AccurateRip вернул [CBD9C0E5] (AR v2)
Трек 5 точность не определена (достоверность 3) [135A69E5], AccurateRip вернул [88C8DD2D] (AR v2)
Трек 6 точность не определена (достоверность 3) [C8C55A9C], AccurateRip вернул [9F80C353] (AR v2)
Трек 7 точность не определена (достоверность 3) [31EE8D4D], AccurateRip вернул [E4667F34] (AR v2)
Трек 8 точность не определена (достоверность 3) [47B280CB], AccurateRip вернул [15BD6D89] (AR v2)
Трек 9 точность не определена (достоверность 3) [6F033032], AccurateRip вернул [7E4762C6] (AR v2)
Трек 10 точность не определена (достоверность 3) [3425372A], AccurateRip вернул [3136A443] (AR v2)
Трек 11 точность не определена (достоверность 3) [1951ACAA], AccurateRip вернул [4A4ED81C] (AR v2)
Трек 12 точность не определена (достоверность 2) [53B26641], AccurateRip вернул [8832511C] (AR v2)
Трек 13 точность не определена (достоверность 3) [D61B1E47], AccurateRip вернул [6F7DDC6C] (AR v2)
Трек 14 точность не определена (достоверность 3) [A9B9884E], AccurateRip вернул [2A074C37] (AR v2)
Трек 15 точность не определена (достоверность 3) [291D649F], AccurateRip вернул [A0D09B71] (AR v2)
Трек 16 точность не определена (достоверность 3) [25C48831], AccurateRip вернул [4BD8A04D] (AR v2)
Трек 17 точность не определена (достоверность 2) [9047ACFA], AccurateRip вернул [57F95826] (AR v2)
Трек 18 точность не определена (достоверность 3) [37710CA1], AccurateRip вернул [EB0DBCAF] (AR v2)
Ни один трек не прошёл проверки на точность
В вашей базе может быть иной вариант штамповки диска
Конец отчёта

Содержание индексной карты (.CUE)

REM GENRE Misc
REM DATE 1992
REM DISCID E70FD312
REM COMMENT "ExactAudioCopy v1.0b3"
PERFORMER "Placido Domingo"
TITLE "Entre Dos Mundos"
FILE "Placido Domingo - Entre Dos Mundos.flac" WAVE
TRACK 01 AUDIO
TITLE "Sevilla"
PERFORMER "Placido Domingo"
INDEX 01 00:00:00
TRACK 02 AUDIO
TITLE "El Grito de America"
PERFORMER "Placido Domingo"
INDEX 00 04:25:07
INDEX 01 04:28:42
TRACK 03 AUDIO
TITLE "Andalucia"
PERFORMER "Placido Domingo"
INDEX 00 08:53:62
INDEX 01 08:57:15
TRACK 04 AUDIO
TITLE "Sonadores de Espana"
PERFORMER "Placido Domingo"
INDEX 00 11:45:55
INDEX 01 11:49:35
TRACK 05 AUDIO
TITLE "Malaguena"
PERFORMER "Placido Domingo"
INDEX 00 17:14:00
INDEX 01 17:17:47
TRACK 06 AUDIO
TITLE "Te quiero Morena"
PERFORMER "Placido Domingo"
INDEX 00 20:40:07
INDEX 01 20:42:57
TRACK 07 AUDIO
TITLE "Siboney"
PERFORMER "Placido Domingo"
INDEX 00 23:17:67
INDEX 01 23:21:27
TRACK 08 AUDIO
TITLE "Amor, Mi Raza Sabe Conquistar"
PERFORMER "Placido Domingo"
INDEX 00 26:57:45
INDEX 01 27:00:72
TRACK 09 AUDIO
TITLE "Adios Mariquita Linda"
PERFORMER "Placido Domingo"
INDEX 00 33:21:15
INDEX 01 33:24:50
TRACK 10 AUDIO
TITLE "Maria La O"
PERFORMER "Placido Domingo"
INDEX 00 36:07:30
INDEX 01 36:10:40
TRACK 11 AUDIO
TITLE "Serenata Tapatia"
PERFORMER "Placido Domingo"
INDEX 00 39:35:05
INDEX 01 39:38:52
TRACK 12 AUDIO
TITLE "De Este Apacible Rincon"
PERFORMER "Placido Domingo"
INDEX 00 41:58:67
INDEX 01 42:02:10
TRACK 13 AUDIO
TITLE "Un Viejo Amor"
PERFORMER "Placido Domingo"
INDEX 00 45:12:45
INDEX 01 45:15:15
TRACK 14 AUDIO
TITLE "Cancion para una Reina"
PERFORMER "Placido Domingo"
INDEX 00 48:14:45
INDEX 01 48:17:50
TRACK 15 AUDIO
TITLE "Damisela Encantadora"
PERFORMER "Placido Domingo"
INDEX 00 53:24:22
INDEX 01 53:27:57
TRACK 16 AUDIO
TITLE "Adoro"
PERFORMER "Placido Domingo"
INDEX 00 56:55:52
INDEX 01 56:59:17
TRACK 17 AUDIO
TITLE "Yo Sere Tu Primer Hombre"
PERFORMER "Placido Domingo"
INDEX 00 60:21:42
INDEX 01 60:25:00
TRACK 18 AUDIO
TITLE "Canto Karabali"
PERFORMER "Placido Domingo"
INDEX 00 64:15:27
INDEX 01 64:19:15



Показать сообщения:    

Текущее время: 03-Дек 03:23

Часовой пояс: UTC + 3


Вы не можете начинать темы
Вы не можете отвечать на сообщения
Вы не можете редактировать свои сообщения
Вы не можете удалять свои сообщения
Вы не можете голосовать в опросах
Вы не можете прикреплять файлы к сообщениям
Вы не можете скачивать файлы