Встречи с любимыми актерами. Олег Стриженов [2012 г., Приложение к телеигре, TVRip]


Статистика раздачи [Обновить пиров]
Размер:  704 MB   |    Зарегистрирован:  8 месяцев 22 дня   |    Скачан:  0 раз

Полного источника не было: Никогда

Личеров:  3  [  0 KB/s  ]   Подробная статистика пиров
 
   
 
 
 

[Цитировать]

Встречи с любимыми актерами. Олег Стриженов Жанр: Приложение к телеигре.
Год выпуска: 2012.
Продолжительность: 00:54:36.
Автор и ведущий: Александр Динес.
Гость этой программы: актер Олег Стриженов.
Описание:
"Маркиза" - это разлекательно-познавательная телеигра, выходящая на Саратовском телевидении с 1993 года. Она состоит из двух частей. В первой части зрители в студии угадывают авторов литературных произведений, сами произведения или их персонажей. Во второй части аудитории требуется определить личность гостя, приглашенного в студию. Как правило, в роли гостя выступает кто-либо из известных актеров, который специально приезжает в Саратов.
В данной раздаче представлено приложение к телеигре - встреча с любимыми актерами. Гость программы - актер Олег Стриженов.
Олег Стриженов отвечает на вопросы зрителей и ведущего.
Рассказывает о своей жизни, семье, о работе в кино и в театре. Читает Сергея Есенина.

Дополнительная информация:
Страна: Россия .
Выпущено: Саратовское телевидение, © СМИ «Телеигра «Маркиза».
Съемка 1998 года.
Релиз
Качество видео:...TVRip
Формат:.................AVI
Видео:..688x512 (1.34:1), 25 fps, XviD MPEG-4 ~1663 kbps avg, 0.19 bit/pixel
Аудио:..44.100 kHz, MPEG Layer 3, 1 ch, ~128.00 kbps avg

Отчет MediaInfo

Общее
Полное имя : Vstrechi.s.ljubimymi.aktjorami.Oleg.Strizhenov.1998.XviD.TVRip.fenixclub.avi
Format : AVI
Format/Info : Audio Video Interleave
File size : 704 MiB
Duration : 54mn 36s
Overall bit rate : 1 802 Kbps
Writing application : VirtualDubModRus 1.5.10.2 (build 2542/release)
Writing library : VirtualDub build 32842/release
Video
ID : 0
Format : MPEG-4 Visual
Format profile : Advanced Simple@L5
Format settings, BVOP : 2
Format settings, QPel : No
Format settings, GMC : No warppoints
Format settings, Matrix : Default (MPEG)
Muxing mode : Packed bitstream
Codec ID : XVID
Codec ID/Hint : XviD
Duration : 54mn 36s
Bit rate : 1 664 Kbps
Width : 688 pixels
Height : 512 pixels
Display aspect ratio : 4:3
Frame rate : 25.000 fps
Color space : YUV
Chroma subsampling : 4:2:0
Bit depth : 8 bits
Scan type : Progressive
Compression mode : Lossy
Bits/(Pixel*Frame) : 0.189
Stream size : 650 MiB (92%)
Writing library : XviD 64
Audio
ID : 1
Format : MPEG Audio
Format version : Version 1
Format profile : Layer 3
Codec ID : 55
Codec ID/Hint : MP3
Duration : 54mn 36s
Bit rate mode : Constant
Bit rate : 128 Kbps
Channel(s) : 1 channel
Sampling rate : 44.1 KHz
Compression mode : Lossy
Stream size : 50.0 MiB (7%)
Alignment : Split accross interleaves
Interleave, duration : 40 ms (1.00 video frame)
Interleave, preload duration : 500 ms
Writing library : LAME3.98

Скриншоты

Альтернативный хост

[teatrix.ru].t19182.torrent 
Торрент: Зарегистрирован [ 2016-03-18 12:54 ] · 2099CFB4BE248FC92EDDA51D03C941EACBCA81B5

Скачать .torrent

Скачать

14 KB

Статус: проверено
Скачан: 0 раз
Размер: 704 MB
terms.php



Быстрый ответ

Имя:

      
Для отправки сообщений необходимо включить JavaScript
Показать сообщения:    

Текущее время: 10-Дек 06:08

Часовой пояс: UTC + 3


Вы можете начинать темы
Вы можете отвечать на сообщения
Вы не можете редактировать свои сообщения
Вы не можете удалять свои сообщения
Вы не можете голосовать в опросах
Вы не можете прикреплять файлы к сообщениям
Вы можете скачивать файлы