(Minimalism) Steve Reich - Radio Rewrite - 2014, FLAC (image+.cue) lossless


 

[Цитировать]

Steve Reich - Radio Rewrite
Жанр: Minimalism
Страна-производитель диска: E.U.
Год издания диска: 2014
Издатель (лейбл): Nonesuch
Номер по каталогу: 7559-79547-0
Дата записи: 2014
Аудиокодек: FLAC
Тип рипа: image+.cue
Битрейт аудио: lossless
Продолжительность: 00:46:01
Источник: собственный рип
Наличие сканов в содержимом раздачи: нет
Треклист:
Electric Counterpoint
01. Fast
02. Slow
03. Fast
04. Piano Counterpoint
Radio Rewrite
05. Fast
06. Slow
07. Fast
08. Slow
09. Fast
Исполнители:
Electric Counterpoint - Jonny Greenwood
Piano Counterpoint - Vicky Chow
Radio Rewrite - Alarm Will Sound, Alan Pierson (conductor)

Лог создания рипа

Exact Audio Copy V1.0 beta 3 from 29. August 2011
EAC extraction logfile from 3. October 2014, 19:15
Steve Reich / Radio Rewrite
Used drive : HL-DT-STDVDRAM GSA-T50N Adapter: 0 ID: 1
Read mode : Secure
Utilize accurate stream : Yes
Defeat audio cache : Yes
Make use of C2 pointers : No
Read offset correction : 667
Overread into Lead-In and Lead-Out : No
Fill up missing offset samples with silence : Yes
Delete leading and trailing silent blocks : No
Null samples used in CRC calculations : Yes
Used interface : Native Win32 interface for Win NT & 2000
Used output format : User Defined Encoder
Selected bitrate : 896 kBit/s
Quality : High
Add ID3 tag : No
Command line compressor : C:\Program Files (x86)\Exact Audio Copy\Flac\flac.exe
Additional command line options : -V -8 -T "Date=%year%" -T "Genre=%genre%" %source%
TOC of the extracted CD
Track | Start | Length | Start sector | End sector
---------------------------------------------------------
1 | 0:00.00 | 6:51.33 | 0 | 30857
2 | 6:51.33 | 3:21.62 | 30858 | 45994
3 | 10:13.20 | 4:30.73 | 45995 | 66317
4 | 14:44.18 | 13:47.25 | 66318 | 128367
5 | 28:31.43 | 3:51.58 | 128368 | 145750
6 | 32:23.26 | 3:22.70 | 145751 | 160970
7 | 35:46.21 | 3:20.57 | 160971 | 176027
8 | 39:07.03 | 3:52.70 | 176028 | 193497
9 | 42:59.73 | 3:00.53 | 193498 | 207050
Range status and errors
Selected range
Filename E:\seed\Steve Reich - 2014 - Radio Rewrite\Steve Reich - Radio Rewrite.wav
Peak level 99.4 %
Extraction speed 2.0 X
Range quality 100.0 %
Test CRC 847331A1
Copy CRC 847331A1
Copy OK
No errors occurred
AccurateRip summary
Track 1 not present in database
Track 2 not present in database
Track 3 not present in database
Track 4 not present in database
Track 5 not present in database
Track 6 not present in database
Track 7 not present in database
Track 8 not present in database
Track 9 not present in database
None of the tracks are present in the AccurateRip database
End of status report
==== Log checksum 9ADAF045939AB6F351BC9BB1E0076A2F684651790AAB9B9E32E29D42D3FBB95E ====

Содержание индексной карты (.CUE)

REM GENRE Minimalism
REM DATE 2014
REM DISCID 7C0AC809
REM COMMENT "ExactAudioCopy v1.0b3"
PERFORMER "Steve Reich"
TITLE "Radio Rewrite"
FILE "Steve Reich - Radio Rewrite.flac" WAVE
TRACK 01 AUDIO
TITLE "Electric Counterpoint: I. Fast - Steve Reich"
PERFORMER "Steve Reich"
INDEX 01 00:00:00
TRACK 02 AUDIO
TITLE "Electric Counterpoint: II. Slow - Steve Reich"
PERFORMER "Steve Reich"
INDEX 01 06:51:33
TRACK 03 AUDIO
TITLE "Electric Counterpoint: III. Fast - Steve Reich"
PERFORMER "Steve Reich"
INDEX 01 10:13:20
TRACK 04 AUDIO
TITLE "Piano Counterpoint - Steve Reich"
PERFORMER "Steve Reich"
INDEX 00 14:39:48
INDEX 01 14:44:18
TRACK 05 AUDIO
TITLE "Radio Rewrite: I. Fast - Steve Reich"
PERFORMER "Steve Reich"
INDEX 00 28:26:63
INDEX 01 28:31:43
TRACK 06 AUDIO
TITLE "Radio Rewrite: II. Slow - Steve Reich"
PERFORMER "Steve Reich"
INDEX 01 32:23:26
TRACK 07 AUDIO
TITLE "Radio Rewrite: III. Fast - Steve Reich"
PERFORMER "Steve Reich"
INDEX 01 35:46:21
TRACK 08 AUDIO
TITLE "Radio Rewrite: IV. Slow - Steve Reich"
PERFORMER "Steve Reich"
INDEX 01 39:07:03
TRACK 09 AUDIO
TITLE "Radio Rewrite: V. Fast - Steve Reich"
PERFORMER "Steve Reich"
INDEX 01 42:59:73

Скриншот спектра частот




Показать сообщения:    

Текущее время: 04-Дек 19:18

Часовой пояс: UTC + 3


Вы не можете начинать темы
Вы не можете отвечать на сообщения
Вы не можете редактировать свои сообщения
Вы не можете удалять свои сообщения
Вы не можете голосовать в опросах
Вы не можете прикреплять файлы к сообщениям
Вы не можете скачивать файлы