(Classical/Vocal) Schubert - Am Brunnen vor dem Tore (Vocals: Ludwig, Fischer-Dieskau, Bumbry, Janowitz - piano: Werba, Moore, Gage, Demus, Peschko) - 1999, APE (image+.cue) lossless


 

[Цитировать]

Schubert - Am Brunnen vor dem Tore
Жанр: Classical/Vocal
Страна-производитель диска: Germany
Год издания диска: 1999
Издатель (лейбл): Deutsche Grammophon/Eloquence
Номер по каталогу: 459 382-2
Дата записи: 1962-1978
Аудиокодек: APE
Тип рипа: image+.cue
Битрейт аудио: lossless
Продолжительность: 61'41
Источник: собственный рип
Наличие сканов в содержимом раздачи: да
Треклист/Исполнители:
Die Winterreise D 911
1 Gute Nacht. Fremd bin ich gezogen
2 Der Lindenbaum. Am Brunnen vor dem Tore
3 Frühlingstraum. Ich träumte von bunten Blumen
Dietrich Fischer-Dieskau, baritone
Jörg Demus, piano
4 Frühlingsglaube D 686b: Die Linden lüfte sind erwacht
Christa Ludwig, alto
Irwin Gage, piano
5 Im Abendrot D 799: O wie schön ist deine Welt
Christa Ludwig, alto
Irwin Gage, piano
6 Ellens Gesang III D 839: Ave Maria
Gundula Janowitz, soprano
Irwin Gage, piano
7 Schwanengesang D 957: Ständchen: leise flehen meine Lieder
8 Heiden Röslein D 257, Sah ein Knab' ein Röslein steh'n
Dietrich Fischer-Dieskau, baritone
Gerald Moore, piano
9 An die Musik D 547: Du holde Kunst
Grace Bumbry, soprano
Erik Werba, piano
10 Die Forelle D 550
Grace Bumbry, soprano
Sebastian Peschko, piano
Die schöne Müllerin D 795
11 Das Wandern ist des Müllers Lust
12 Wohin? / Ich hört ein Bächlein rauschen
13 Ungeduld. ich schnitt es gern in alle Rinden ein
Dietrich Fischer-Dieskau, baritone
Gerald Moore, piano
14 Du bist die Ruh D 776
Gundula Janowitz, soprano
Irwin Gage, piano
15 Der Erlkönig D 328: Wer reitet so spät
Dietrich Fischer-Dieskau, baritone
Gerald Moore, piano
16 An den Mond D 296: Füllest wieder Busch und Tal
Christa Ludwig, alto
Irwin Gage, piano

Лог создания рипа

Exact Audio Copy V1.0 beta 3 from 29. August 2011
EAC extraction logfile from 3. August 2014, 18:38
Franz Schubert / Am Brunnen vor dem Tore
Used drive : HL-DT-STDVDRAM GH22NS50 Adapter: 0 ID: 2
Read mode : Secure
Utilize accurate stream : Yes
Defeat audio cache : Yes
Make use of C2 pointers : No
Read offset correction : 667
Overread into Lead-In and Lead-Out : No
Fill up missing offset samples with silence : Yes
Delete leading and trailing silent blocks : No
Null samples used in CRC calculations : Yes
Used interface : Native Win32 interface for Win NT & 2000
Used output format : Monkey's Audio Lossless Encoder
Selected bitrate : High Lossless Compression
Quality : High
Add ID3 tag : No
Command line compressor : C:\Program Files (x86)\Exact Audio Copy\MAC\MAC.exe
TOC of the extracted CD
Track | Start | Length | Start sector | End sector
---------------------------------------------------------
1 | 0:00.00 | 5:36.43 | 0 | 25242
2 | 5:36.43 | 4:40.67 | 25243 | 46309
3 | 10:17.35 | 4:02.33 | 46310 | 64492
4 | 14:19.68 | 3:01.12 | 64493 | 78079
5 | 17:21.05 | 3:34.10 | 78080 | 94139
6 | 20:55.15 | 7:46.45 | 94140 | 129134
7 | 28:41.60 | 3:53.25 | 129135 | 146634
8 | 32:35.10 | 1:46.38 | 146635 | 154622
9 | 34:21.48 | 2:28.12 | 154623 | 165734
10 | 36:49.60 | 2:08.43 | 165735 | 175377
11 | 38:58.28 | 2:32.05 | 175378 | 186782
12 | 41:30.33 | 2:25.20 | 186783 | 197677
13 | 43:55.53 | 2:50.67 | 197678 | 210494
14 | 46:46.45 | 5:46.55 | 210495 | 236499
15 | 52:33.25 | 4:19.55 | 236500 | 255979
16 | 56:53.05 | 4:48.50 | 255980 | 277629
Range status and errors
Selected range
Filename D:\EAC\Franz Schubert - Am Brunnen vor dem Tore.wav
Peak level 99.9 %
Extraction speed 1.7 X
Range quality 99.9 %
Test CRC B7814D50
Copy CRC 87517F4E
Copy OK
No errors occurred
AccurateRip summary
Track 1 accurately ripped (confidence 3) [F7376435] (AR v1)
Track 2 accurately ripped (confidence 3) [A2C199A5] (AR v1)
Track 3 accurately ripped (confidence 3) [649D7AFF] (AR v1)
Track 4 accurately ripped (confidence 3) [4AF9ED20] (AR v1)
Track 5 accurately ripped (confidence 3) [20EEAE4D] (AR v1)
Track 6 accurately ripped (confidence 3) [507DB168] (AR v1)
Track 7 accurately ripped (confidence 3) [93392908] (AR v1)
Track 8 accurately ripped (confidence 2) [1F6C7E04] (AR v1)
Track 9 accurately ripped (confidence 2) [AE8BF186] (AR v1)
Track 10 accurately ripped (confidence 2) [0A90574F] (AR v1)
Track 11 accurately ripped (confidence 3) [4F6FB636] (AR v1)
Track 12 accurately ripped (confidence 3) [51540FEB] (AR v1)
Track 13 accurately ripped (confidence 3) [0ED8B386] (AR v1)
Track 14 accurately ripped (confidence 3) [7C654242] (AR v1)
Track 15 accurately ripped (confidence 3) [15EA0609] (AR v1)
Track 16 cannot be verified as accurate (confidence 2) [DD442992], AccurateRip returned [CA6522B0] (AR v2)
15 track(s) accurately ripped
1 track(s) could not be verified as accurate
Some tracks could not be verified as accurate
End of status report
---- CUETools DB Plugin V2.1.3
[CTDB TOCID: .Il.DLiPRSygTt12FXdiKInbREQ-] found, Submit result: insufficient quality
[6c699c9f] (5/5) Differs in 2 samples @57:55:12
You can use CUETools to repair this rip.
==== Log checksum CCAFFB169D9F60E10E9568A555093CBB811B363F8F17B59256EA9D08F6A1F7FE ====

Содержание индексной карты (.CUE)

REM GENRE Classical
REM DISCID D30E7510
REM COMMENT "ExactAudioCopy v1.0b3"
CATALOG 0028945938226
PERFORMER "Franz Schubert"
TITLE "Am Brunnen vor dem Tore"
FILE "Franz Schubert - Am Brunnen vor dem Tore.ape" WAVE
TRACK 01 AUDIO
TITLE "Fremd bin ich eingezogen"
PERFORMER "Die Winterreise D 911 - Gute Nacht"
ISRC DEF056532001
INDEX 01 00:00:00
TRACK 02 AUDIO
TITLE "Am Brunnen vor dem Tore"
PERFORMER "Die Winterreise D 911 - Der Lindenbaum"
ISRC DEF056532005
INDEX 01 05:36:43
TRACK 03 AUDIO
TITLE "Ich traumte von bunten Blumen"
PERFORMER "Die Winterreise D 911 - Fruhlingstraum"
ISRC DEF056532011
INDEX 01 10:17:35
TRACK 04 AUDIO
TITLE "Die linden Lufte sind wach"
PERFORMER "Frühlingsglaube D 686b"
ISRC DEF057302630
INDEX 00 14:16:55
INDEX 01 14:19:68
TRACK 05 AUDIO
TITLE "O wie schon ist Deine Welt"
PERFORMER "Im Abendrot D 799"
ISRC DEF057302680
INDEX 00 17:17:43
INDEX 01 17:21:05
TRACK 06 AUDIO
TITLE "Ave Maria"
PERFORMER "Ellens Gesang III D 839"
ISRC DEF057602882
INDEX 00 20:52:58
INDEX 01 20:55:15
TRACK 07 AUDIO
TITLE "Standchen: Leise flehen meine Lieder"
PERFORMER "Schwanengesang D 957"
ISRC DEF057230204
INDEX 00 28:39:23
INDEX 01 28:41:60
TRACK 08 AUDIO
TITLE "Sah ein Knab ein Roslein stehn"
PERFORMER "Schwanengesang D 957 - Heidenroslein"
ISRC DEF056700470
INDEX 01 32:35:10
TRACK 09 AUDIO
TITLE "Du holde Kunst"
PERFORMER "An die Musik D 547"
ISRC DEF056200450
INDEX 00 34:18:55
INDEX 01 34:21:48
TRACK 10 AUDIO
TITLE "Die Forelle D 550"
PERFORMER "Die Forelle D 550"
ISRC DEF056301340
INDEX 01 36:49:60
TRACK 11 AUDIO
TITLE "Das Wandern ist des Müllers Lust"
PERFORMER "Die schöne Müllerin D 795"
ISRC DEF057130201
INDEX 00 38:55:33
INDEX 01 38:58:28
TRACK 12 AUDIO
TITLE "Wohin? Ich hort ein Bachhlein rauschen"
PERFORMER "Die schöne Müllerin D 795"
ISRC DEF057130202
INDEX 01 41:30:33
TRACK 13 AUDIO
TITLE "Ungeduld. Ich schnitt es gern in alle Rinden ein"
PERFORMER "Die schöne Müllerin D 795"
ISRC DEF057130207
INDEX 01 43:55:53
TRACK 14 AUDIO
TITLE "Du bist die Ruh D 776"
PERFORMER "Du bist die Ruh' D 776"
ISRC DEF057602850
INDEX 00 46:44:23
INDEX 01 46:46:45
TRACK 15 AUDIO
TITLE "Wer reitet so spät"
PERFORMER "Der Erlkönig D 328"
ISRC DEF056800630
INDEX 00 52:30:73
INDEX 01 52:33:25
TRACK 16 AUDIO
TITLE "Füllest wieder Busch und Tal"
PERFORMER "An den Mond D 296"
ISRC DEF057401740
INDEX 00 56:50:05
INDEX 01 56:53:05



Показать сообщения:    

Текущее время: 04-Дек 15:17

Часовой пояс: UTC + 3


Вы не можете начинать темы
Вы не можете отвечать на сообщения
Вы не можете редактировать свои сообщения
Вы не можете удалять свои сообщения
Вы не можете голосовать в опросах
Вы не можете прикреплять файлы к сообщениям
Вы не можете скачивать файлы