(Baroque oratorio) Alessandro Scarlatti - La Colpa, Il Pentimento, La Grazia / Stradella - Lamentatione per il Mercodi Santo, Crocifissione e Morte di N. S. Giesu Cristo (Kai Wessel / La Stagione, Michael Schneider) - 1993, FLAC (image+.cue) lossless


Статистика раздачи [Обновить пиров]
Размер:  554 MB   |    Зарегистрирован:  10 месяцев 1 день   |    Скачан:  0 раз

Полного источника не было: Никогда

Личеров:  54  [  0 KB/s  ]   Подробная статистика пиров
 
   
 
 
 

[Цитировать]

Alessandro Scarlatti - La Colpa, Il Pentimento, La Grazia

Жанр: Baroque oratorio / cantata
Страна-производитель диска: Made in Germany
Год издания диска: 1993
Издатель (лейбл): Capriccio
Номер по каталогу: CDVP 104356
Дата записи: 1992
Аудиокодек: FLAC
Тип рипа: image+.cue
Битрейт аудио: lossless
Продолжительность: 1:53:51
Источник: релизер
сайт-источник/ник/другое: Saoshya and Meeting in Music blogspot
Наличие сканов в содержимом раздачи: да
Треклист:

скрытый текст

CD1
01. Sinfonia 02:27
02. Fosco orrore il tutto ingombra (Colpa) 03:56
03. Cangio aspetto col perdono (Colpa; Pentimento) 02:09
04. Come sola rimane (Pentimento) 02:01
05. Spinta dal duolo (Pentimento) 04:24
06. Le strade di Sion (Colpa) 04:18
07. Sende L’ali funeste (Grazia; Colpa; Pentimento) 03:56
08. Piangerò (Grazia) 05:36
09. La figlia di Sion (Colpa) 02:01
10. Gerusalem non ha dove (Colpa) 03:27
11. Passeggia per sentier sordido (Colpa) 00:54
12. Mira Signor deh (Colpa) 03:12
13. Gerusalem ritorna (Grazia) 00:41
14. Prenderò dal tuo lume (Pentimento) 02:58
15. Vide Sion rapirsi (Colpa) 04:04
16. Gerusalem, ingrata figlia riedi (Grazia; Colpa; Pentimento) 02:57
CD2
01. Ho un solo core in seno (Pentimento; Colpa) 03:39
02. Pensa al tuo Dio trafitto (Colpa; Grazia) 04:20
03. Figli miei spietati (Grazia; Pentimento) 05:15
04. Tu cagion sei del mio pianto (Pentimento; Colpa) 02:43
05. Ingato cuor non pensi (Pentimento) 04:03
06. Ti guido pur al lido (Colpa) 00:50
07. D’orror (Colpa) 00:48
08. Trombe, che d’ogni intorno (Colpa; Pentimento; Grazia) 04:20
09. Qual rugiada (Grazia) 02:55
10. No, non bramo contenti (Pentimento) 04:24
11. Tormento, é sempre la memoria mia (Colpa) 04:31
12. O quanto é ver (Pentimento; Colpa; Grazia) 02:00
13. O Croce unica speme (Coro) 02:58
14. Alessandro Stradella
Lamentatione per il Mercordi Santo 09:21
15. Alessandro Stradella
Crocifissione e Morte di N. S. Giesù Cristo 13:09
Исполнители:

скрытый текст

Alessandro Scarlatti
La Colpa, Il Pentimento, La Grazia
Oratorio per la Passione di Nostro Signore Gesu Cristo
Mechthild Bach - La Colpa, soprano
Petra Geitner - La Grazia, soprano
Kai Wessel - Il Pentimento, alto
Alessandro Stradella
Lamentatione per il Mercodi Santo
Crocifissione e morte di nostro signore Gesu Cristo
Cantata in contralto con stromenti
Kai Wessel - alto
La Stagione
Michael Schneider - conductor

Лог создания рипа

CD1
Exact Audio Copy V0.99 prebeta 4 from 23. January 2008
EAC extraction logfile from 25. February 2014, 15:16
La Stagione, Michael Schneider / Alessandro Scarlatti - La Colpa, Il Pentimento, La Grazia CD1
Used drive : SONY DVD-ROM DDU1615 Adapter: 0 ID: 0
Read mode : Secure
Utilize accurate stream : Yes
Defeat audio cache : Yes
Make use of C2 pointers : No
Read offset correction : 6
Overread into Lead-In and Lead-Out : No
Fill up missing offset samples with silence : Yes
Delete leading and trailing silent blocks : No
Null samples used in CRC calculations : Yes
Used interface : Native Win32 interface for Win NT & 2000
Used output format : User Defined Encoder
Selected bitrate : 1024 kBit/s
Quality : High
Add ID3 tag : No
Command line compressor : C:\Program Files\REACT\REACT.exe
Additional command line options : REACT %o %s %d "%a" "%g" "%t" "%n" "%x" "%y" "%m" "%e" "%f" "%b" %r
TOC of the extracted CD
Track | Start | Length | Start sector | End sector
---------------------------------------------------------
1 | 0:00.00 | 2:27.57 | 0 | 11081
2 | 2:27.57 | 3:56.05 | 11082 | 28786
3 | 6:23.62 | 2:09.25 | 28787 | 38486
4 | 8:33.12 | 2:01.18 | 38487 | 47579
5 | 10:34.30 | 4:24.07 | 47580 | 67386
6 | 14:58.37 | 4:18.25 | 67387 | 86761
7 | 19:16.62 | 3:56.45 | 86762 | 104506
8 | 23:13.32 | 5:36.18 | 104507 | 129724
9 | 28:49.50 | 2:01.45 | 129725 | 138844
10 | 30:51.20 | 3:27.55 | 138845 | 154424
11 | 34:19.00 | 0:54.22 | 154425 | 158496
12 | 35:13.22 | 3:12.23 | 158497 | 172919
13 | 38:25.45 | 0:41.17 | 172920 | 176011
14 | 39:06.62 | 2:58.63 | 176012 | 189424
15 | 42:05.50 | 4:04.12 | 189425 | 207736
16 | 46:09.62 | 2:57.38 | 207737 | 221049
Range status and errors
Selected range
Filename L:\Saoshya\Capriccio 10411-12 Alessandro Scarlatti - La Colpa, Il Pentimento, La Grazia (La Stagione, M. Schneider)\CDImage 1\A. Scarlatti - La Colpa, Il Pentimento, La Grazia - La Stagione CD1.wav
Peak level 61.1 %
Range quality 99.9 %
Test CRC 3A83637F
Copy CRC 3A83637F
Copy OK
No errors occurred
AccurateRip summary
Track 1 accurately ripped (confidence 1) [D8C2A3DF]
Track 2 accurately ripped (confidence 1) [C8A034DE]
Track 3 accurately ripped (confidence 1) [F5DA8CC2]
Track 4 accurately ripped (confidence 1) [53FD1397]
Track 5 accurately ripped (confidence 2) [3EFFB396]
Track 6 accurately ripped (confidence 1) [B797CAD3]
Track 7 accurately ripped (confidence 1) [BF3E55EC]
Track 8 accurately ripped (confidence 1) [5AC04BC0]
Track 9 accurately ripped (confidence 1) [DB4CD877]
Track 10 accurately ripped (confidence 1) [90C61860]
Track 11 accurately ripped (confidence 1) [9B23B87F]
Track 12 accurately ripped (confidence 1) [116E30A4]
Track 13 accurately ripped (confidence 1) [C4D381D6]
Track 14 accurately ripped (confidence 1) [760C09B4]
Track 15 accurately ripped (confidence 1) [4BEE6177]
Track 16 accurately ripped (confidence 1) [02DB3823]
All tracks accurately ripped
End of status report
CD2
Exact Audio Copy V0.99 prebeta 4 from 23. January 2008
EAC extraction logfile from 25. February 2014, 15:46
La Stagione, Michael Schneider / Alessandro Scarlatti - La Colpa, Il Pentimento, La Grazia CD2
Used drive : SONY DVD-ROM DDU1615 Adapter: 0 ID: 0
Read mode : Secure
Utilize accurate stream : Yes
Defeat audio cache : Yes
Make use of C2 pointers : No
Read offset correction : 6
Overread into Lead-In and Lead-Out : No
Fill up missing offset samples with silence : Yes
Delete leading and trailing silent blocks : No
Null samples used in CRC calculations : Yes
Used interface : Native Win32 interface for Win NT & 2000
Used output format : User Defined Encoder
Selected bitrate : 1024 kBit/s
Quality : High
Add ID3 tag : No
Command line compressor : C:\Program Files\REACT\REACT.exe
Additional command line options : REACT %o %s %d "%a" "%g" "%t" "%n" "%x" "%y" "%m" "%e" "%f" "%b" %r
TOC of the extracted CD
Track | Start | Length | Start sector | End sector
---------------------------------------------------------
1 | 0:00.00 | 3:39.17 | 0 | 16441
2 | 3:39.17 | 4:20.63 | 16442 | 36004
3 | 8:00.05 | 5:15.12 | 36005 | 59641
4 | 13:15.17 | 2:43.28 | 59642 | 71894
5 | 15:58.45 | 4:03.00 | 71895 | 90119
6 | 20:01.45 | 0:50.45 | 90120 | 93914
7 | 20:52.15 | 0:48.20 | 93915 | 97534
8 | 21:40.35 | 4:20.50 | 97535 | 117084
9 | 26:01.10 | 2:55.02 | 117085 | 130211
10 | 28:56.12 | 4:24.45 | 130212 | 150056
11 | 33:20.57 | 4:31.18 | 150057 | 170399
12 | 37:52.00 | 2:00.47 | 170400 | 179446
13 | 39:52.47 | 2:58.65 | 179447 | 192861
14 | 42:51.37 | 9:21.13 | 192862 | 234949
15 | 52:12.50 | 13:09.50 | 234950 | 294174
Range status and errors
Selected range
Filename L:\Saoshya\Capriccio 10411-12 Alessandro Scarlatti - La Colpa, Il Pentimento, La Grazia (La Stagione, M. Schneider)\CDimage 2\A. Scarlatti - La Colpa, Il Pentimento, La Grazia - La Stagione CD2.wav
Peak level 88.8 %
Range quality 99.9 %
Test CRC 1E95D358
Copy CRC 1E95D358
Copy OK
No errors occurred
AccurateRip summary
Track 1 accurately ripped (confidence 2) [C58E90C3]
Track 2 accurately ripped (confidence 2) [67ED2CF1]
Track 3 accurately ripped (confidence 2) [0B9DED5F]
Track 4 accurately ripped (confidence 2) [47A92334]
Track 5 accurately ripped (confidence 2) [CD538785]
Track 6 accurately ripped (confidence 2) [6CDBE868]
Track 7 accurately ripped (confidence 2) [96BFB328]
Track 8 accurately ripped (confidence 2) [1E31FCDC]
Track 9 accurately ripped (confidence 2) [1D3A36A5]
Track 10 accurately ripped (confidence 2) [17217560]
Track 11 accurately ripped (confidence 2) [741F858D]
Track 12 accurately ripped (confidence 2) [0F54A212]
Track 13 accurately ripped (confidence 2) [A764D611]
Track 14 accurately ripped (confidence 2) [D230191B]
Track 15 accurately ripped (confidence 2) [A792FAFF]
All tracks accurately ripped
End of status report
[teatrix.ru].t19188.torrent 
Торрент: Зарегистрирован [ 2016-03-18 12:48 ] · 8435FC0456F8916088847248AC162C9085D55516

Скачать .torrent

Скачать

13 KB

Статус: проверено
Скачан: 0 раз
Размер: 554 MB
terms.php



Быстрый ответ

Имя:

      
Для отправки сообщений необходимо включить JavaScript
Показать сообщения:    

Текущее время: 19-Янв 16:03

Часовой пояс: UTC + 3


Вы можете начинать темы
Вы можете отвечать на сообщения
Вы не можете редактировать свои сообщения
Вы не можете удалять свои сообщения
Вы не можете голосовать в опросах
Вы не можете прикреплять файлы к сообщениям
Вы можете скачивать файлы