(Baroque cantata) Alessandro Scarlatti - Cinque Profeti [Christmas Cantata] , Corelli - Sonata a quattro (WoO2) g-moll (Kai Wessel, Barbara Schlick / La Stagione, Michael Schneider) - 2009, FLAC (image+.cue) lossless


Статистика раздачи [Обновить пиров]
Размер:  414 MB   |    Зарегистрирован:  8 месяцев 21 день   |    Скачан:  0 раз

Полного источника не было: Никогда

Личеров:  3  [  0 KB/s  ]   Подробная статистика пиров
 
   
 
 
 

[Цитировать]

Alessandro Scarlatti - Cinque Profeti [Christmas Cantata]

Жанр: Baroque cantata
Страна-производитель диска: Made in USA
Год издания диска: 2009
Издатель (лейбл): Deutsche Harmonia Mundi / BMG Music
Номер по каталогу: 05472-77291-2
Дата записи: 1993
Аудиокодек: FLAC
Тип рипа: image+.cue
Битрейт аудио: lossless
Продолжительность: 65'43
Источник: релизер
сайт-источник/ник/другое: Saoshya and Meeting in Music blogspot
Наличие сканов в содержимом раздачи: да
Треклист:

скрытый текст

Arcangelo Corelli
Sonata a quattro (WoO2) g-moll
01. Adagio 00:33
02. Andante largo 00:46
03. Allegro 01:20
04. Grave 01:01
05. Presto 01:05
06. Vivace 01:06
Cinque Profeti [Christmas Cantata]
07. Recitativo. Daniele 'Abramo, il tuo sembiante' 01:33
08. Aria. Daniele 'Mira, come al crin gelato' 02:23
09. Aria. Daniele 'Fugge l'ombra ed ogni' 02:15
10. Recitativo. Abramo 'Amato Ezechiele' 01:10
11. Aria. Ezechiele 'Già sento che sereno' 02:26
12. Recitativo. Isaia 'Già nel ciel' 00:50
13. Aria. Isaia 'Bella gloria havrà' 02:06
14. Recitativo. Ezechiele 'Fortunata capanna' 00:43
15. Aria. Daniele 'Pargoletto in rozze fasce' 05:17
16. Recitativo. Abramo 'Pur giungesti una volta' 00:16
17. Aria. Abramo 'Qual nocchiero agitato' 03:21
18. Recitativo. Daniele 'Innocenti pastori' 00:26
19. Duetto. Daniele, Ezechiele 'Si vi brama, si vi chiama' 02:28
20. Largo e piano. Geremia 'Lagrime amare' 02:44
21. Recitativo. Daniele 'In notte si gioconda' 00:44
22. Largo. Geremia 'Io sol vorrei' 00:34
23. Recitativo. Daniele 'Frena il duol!' 00:21
24. Aria. Ezechiele 'Temp non è di piangere' 02:26
25. Recitativo. Isaia 'O vaga di Sion figlia' 01:23
26. Adagio e recitativo. Geremia 'Gerusalemme ingrata' 01:03
27. Aria. Abramo 'Chiama le gioie al core!' 02:56
28. Recitativo. Daniele 'Tu già narrasti un tempo' 01:09
29. Aria. Daniele 'Senti che lieti intorno' 03:55
30. Recitativo. Abramo 'Se volgi un guardo solo' 00:35
31. Aria. Isaia 'Gioie sono i pianti suoi' 02:49
32. Recitativo. Ezechiele 'Vedi, Vedi già nato' 00:41
33. Aria. Geremia 'A poco, a poco' 05:37
34. Recitativo. Ezechiele 'In te nulla più resti' 00:16
35. Aria. Ezechiele 'Se togli dall’alma' 02:20
36. Recitativo. Abramo 'Stillano al fin alma' 02:41
37. Pieno (Coro) 'Amato mio Giesù' 02:06
Исполнители:

скрытый текст

Alessandro Scarlatti (1660-1725)
Cinque Profeti - Christmas Cantata
Heike Hallaschka (soprano)
Kai Wessel (alto)
Barbara Schlick (soprano)
La Stagione
Michael Schneider - conductor
Audio CD (December 30, 2009)

Лог создания рипа

Exact Audio Copy V0.99 prebeta 4 from 23. January 2008
EAC extraction logfile from 21. February 2014, 9:28
La Stagione, Michael Schneider / Alessandro Scarlatti - Cinque Profeti
Used drive : SONY DVD-ROM DDU1615 Adapter: 0 ID: 0
Read mode : Secure
Utilize accurate stream : Yes
Defeat audio cache : Yes
Make use of C2 pointers : No
Read offset correction : 6
Overread into Lead-In and Lead-Out : No
Fill up missing offset samples with silence : Yes
Delete leading and trailing silent blocks : No
Null samples used in CRC calculations : Yes
Used interface : Native Win32 interface for Win NT & 2000
Used output format : User Defined Encoder
Selected bitrate : 1024 kBit/s
Quality : High
Add ID3 tag : No
Command line compressor : C:\Program Files\REACT\REACT.exe
Additional command line options : REACT %o %s %d "%a" "%g" "%t" "%n" "%x" "%y" "%m" "%e" "%f" "%b" %r
TOC of the extracted CD
Track | Start | Length | Start sector | End sector
---------------------------------------------------------
1 | 0:00.00 | 0:33.35 | 0 | 2509
2 | 0:33.35 | 0:46.15 | 2510 | 5974
3 | 1:19.50 | 1:20.03 | 5975 | 11977
4 | 2:39.53 | 1:01.70 | 11978 | 16622
5 | 3:41.48 | 1:05.72 | 16623 | 21569
6 | 4:47.45 | 1:06.30 | 21570 | 26549
7 | 5:54.00 | 1:33.68 | 26550 | 33592
8 | 7:27.68 | 2:23.27 | 33593 | 44344
9 | 9:51.20 | 2:15.60 | 44345 | 54529
10 | 12:07.05 | 1:10.25 | 54530 | 59804
11 | 13:17.30 | 2:26.45 | 59805 | 70799
12 | 15:44.00 | 0:50.23 | 70800 | 74572
13 | 16:34.23 | 2:06.10 | 74573 | 84032
14 | 18:40.33 | 0:43.12 | 84033 | 87269
15 | 19:23.45 | 5:17.65 | 87270 | 111109
16 | 24:41.35 | 0:16.10 | 111110 | 112319
17 | 24:57.45 | 3:21.15 | 112320 | 127409
18 | 28:18.60 | 0:26.13 | 127410 | 129372
19 | 28:44.73 | 2:28.70 | 129373 | 140542
20 | 31:13.68 | 2:44.50 | 140543 | 152892
21 | 33:58.43 | 0:44.17 | 152893 | 156209
22 | 34:42.60 | 0:34.40 | 156210 | 158799
23 | 35:17.25 | 0:21.65 | 158800 | 160439
24 | 35:39.15 | 2:26.03 | 160440 | 171392
25 | 38:05.18 | 1:23.30 | 171393 | 177647
26 | 39:28.48 | 1:03.25 | 177648 | 182397
27 | 40:31.73 | 2:56.37 | 182398 | 195634
28 | 43:28.35 | 1:09.25 | 195635 | 200834
29 | 44:37.60 | 3:55.73 | 200835 | 218532
30 | 48:33.58 | 0:35.72 | 218533 | 221229
31 | 49:09.55 | 2:49.00 | 221230 | 233904
32 | 51:58.55 | 0:41.73 | 233905 | 237052
33 | 52:40.53 | 5:37.15 | 237053 | 262342
34 | 58:17.68 | 0:16.70 | 262343 | 263612
35 | 58:34.63 | 2:20.52 | 263613 | 274164
36 | 60:55.40 | 2:41.18 | 274165 | 286257
37 | 63:36.58 | 2:06.17 | 286258 | 295724
Range status and errors
Selected range
Filename L:\Saoshya\DHM5472-77291 Alessandro Scarlatti - Cinque Profeti (La Stagione, Michael Schneider)\CDImage\Alessandro Scarlatti - Cinque Profeti - La Stagione.wav
Peak level 59.6 %
Range quality 100.0 %
Test CRC 83B5A905
Copy CRC 83B5A905
Copy OK
No errors occurred
AccurateRip summary
Track 1 not present in database
Track 2 not present in database
Track 3 not present in database
Track 4 not present in database
Track 5 not present in database
Track 6 not present in database
Track 7 not present in database
Track 8 not present in database
Track 9 not present in database
Track 10 not present in database
Track 11 not present in database
Track 12 not present in database
Track 13 not present in database
Track 14 not present in database
Track 15 not present in database
Track 16 not present in database
Track 17 not present in database
Track 18 not present in database
Track 19 not present in database
Track 20 not present in database
Track 21 not present in database
Track 22 not present in database
Track 23 not present in database
Track 24 not present in database
Track 25 not present in database
Track 26 not present in database
Track 27 not present in database
Track 28 not present in database
Track 29 not present in database
Track 30 not present in database
Track 31 not present in database
Track 32 not present in database
Track 33 not present in database
Track 34 not present in database
Track 35 not present in database
Track 36 not present in database
Track 37 not present in database
None of the tracks are present in the AccurateRip database
End of status report
[teatrix.ru].t19190.torrent 
Торрент: Зарегистрирован [ 2016-03-18 12:43 ] · CE3165106476047607AE7CCC7EB87EAC838C86D4

Скачать .torrent

Скачать

18 KB

Статус: проверено
Скачан: 0 раз
Размер: 414 MB
terms.php



Быстрый ответ

Имя:

      
Для отправки сообщений необходимо включить JavaScript
Показать сообщения:    

Текущее время: 09-Дек 01:06

Часовой пояс: UTC + 3


Вы можете начинать темы
Вы можете отвечать на сообщения
Вы не можете редактировать свои сообщения
Вы не можете удалять свои сообщения
Вы не можете голосовать в опросах
Вы не можете прикреплять файлы к сообщениям
Вы можете скачивать файлы