(Baroque sacred cantata/oratorio) Alessandro Scarlatti - Abramo, il tuo sembiante [Cantata Natalizia] (Alessandro Stradella Consort, Esteban Velardi) - 1997, FLAC (image+.cue) lossless


 

[Цитировать]

Abramo, il tuo sembiante

Жанр: Baroque sacred cantata/oratorio
Страна-производитель диска: Made in Germany
Год издания диска: 1997
Издатель (лейбл): NUOVA ERA RECORDS
Номер по каталогу: 7117
Дата записи: 1992
Аудиокодек: FLAC
Тип рипа: image+.cue
Битрейт аудио: lossless
Продолжительность: 74 минуты
Источник: релизер
сайт-источник/ник/другое: Saoshya and Meeting in Music blogspot
Наличие сканов в содержимом раздачи: да
Треклист:

скрытый текст

01. Sinfonia di Concerto Grosso N. IV 07:52
02. Rec. Abramo, il tuo sembiante 01:30
03. Aria. Mira come al crin gelato 04:20
04. Rec. Amato Ezechiele 01:28
05. Aria. Già sento che sereno 02:18
06. Rec. Già nel ciel di Giacobbe 00:53
07. Aria. Bella gloria avrà il Giordano 02:35
08. Rec. Fortunata capanna 00:46
09. Aria. Pargoletto in rozze fasce 05:26
10. Rec. Pur giungesti una volta 00:17
11. Aria. Qual nocchiero agitato dall’onde 03:58
12. Rec. Innocenti pastorali! 00:31
13. Duetto. Sì vi brama - sì vi chiama 02:22
14. Aria. Lagrime amare 02:47
15. Rec. In notte sì gioconda 01:49
16. Aria. Tempo non è di lagrime [piangere] 02:15
17. Rec. O vaga di Sion figlia 01:48
18. Rec. acc. Gerusalemme ingrata 01:44
19. Aria. Chiama le gioie al core 03:03
20. Rec. Tu già narrasti un tempo 01:06
21. Aria. Senti, che lieti intorno al bel presepe 03:21
22. Rec. Se volgi un guardo solo 00:42
23. Aria. Gioie sono i pianti suoi 02:58
24. Rec. Verdi già nato il Verbo 00:53
25. Aria A. A poco a poco l’anima mia 05:44
26. Rec. In te nulla più resti 00:15
27. Aria. Se togli dall’alma 02:19
28. Rec. Stillano alfin alma ruggiada i cieli 03:24
29. Coro. Amato mio Gesù 01:58
30. Aria B. A poco a poco l’anima mia 03:27
Исполнители:

скрытый текст

Alessandro Scarlatti (1660-1725)
Abramo, il tuo sembiante - Cantata Natalizia
Daniele: Silvia Piccollo, soprano
Ezechiele: Loredana Bacchetta, soprano
Geremia: Marco Lazzara, contralto
Isaia: Mario Nuvoli, tenor
Abramo: Giovanni Dagnino, bass
Alessandro Stradella Consort
Esteban Velardi - conductor
Audio CD (October 1, 1997)

Лог создания рипа

Exact Audio Copy V0.99 prebeta 4 from 23. January 2008
EAC extraction logfile from 6. March 2013, 16:00
Alessandro Stradella Consort, Esteban Velardi / Alessandro Scarlatti - Cantata Natalizia “Abramo, il tuo sembiante”
Used drive : SONY DVD-ROM DDU1615 Adapter: 0 ID: 0
Read mode : Secure
Utilize accurate stream : Yes
Defeat audio cache : Yes
Make use of C2 pointers : No
Read offset correction : 6
Overread into Lead-In and Lead-Out : No
Fill up missing offset samples with silence : Yes
Delete leading and trailing silent blocks : No
Null samples used in CRC calculations : Yes
Used interface : Native Win32 interface for Win NT & 2000
Used output format : User Defined Encoder
Selected bitrate : 1024 kBit/s
Quality : High
Add ID3 tag : No
Command line compressor : C:\Program Files\REACT\REACT.exe
Additional command line options : REACT %o %s %d "%a" "%g" "%t" "%n" "%x" "%y" "%m" "%e" "%f" "%b" %r
TOC of the extracted CD
Track | Start | Length | Start sector | End sector
---------------------------------------------------------
1 | 0:00.33 | 7:52.35 | 33 | 35467
2 | 7:52.68 | 1:30.55 | 35468 | 42272
3 | 9:23.48 | 4:20.45 | 42273 | 61817
4 | 13:44.18 | 1:28.52 | 61818 | 68469
5 | 15:12.70 | 2:18.53 | 68470 | 78872
6 | 17:31.48 | 0:53.72 | 78873 | 82919
7 | 18:25.45 | 2:35.58 | 82920 | 94602
8 | 21:01.28 | 0:46.70 | 94603 | 98122
9 | 21:48.23 | 5:26.47 | 98123 | 122619
10 | 27:14.70 | 0:17.00 | 122620 | 123894
11 | 27:31.70 | 3:58.65 | 123895 | 141809
12 | 31:30.60 | 0:31.48 | 141810 | 144182
13 | 32:02.33 | 2:22.40 | 144183 | 154872
14 | 34:24.73 | 2:47.20 | 154873 | 167417
15 | 37:12.18 | 1:49.45 | 167418 | 175637
16 | 39:01.63 | 2:15.00 | 175638 | 185762
17 | 41:16.63 | 1:48.67 | 185763 | 193929
18 | 43:05.55 | 1:44.40 | 193930 | 201769
19 | 44:50.20 | 3:03.63 | 201770 | 215557
20 | 47:54.08 | 1:06.40 | 215558 | 220547
21 | 49:00.48 | 3:21.45 | 220548 | 235667
22 | 52:22.18 | 0:42.40 | 235668 | 238857
23 | 53:04.58 | 2:58.00 | 238858 | 252207
24 | 56:02.58 | 0:53.12 | 252208 | 256194
25 | 56:55.70 | 5:44.25 | 256195 | 282019
26 | 62:40.20 | 0:15.38 | 282020 | 283182
27 | 62:55.58 | 2:19.12 | 283183 | 293619
28 | 65:14.70 | 3:24.13 | 293620 | 308932
29 | 68:39.08 | 1:58.25 | 308933 | 317807
30 | 70:37.33 | 3:27.00 | 317808 | 333332
Range status and errors
Selected range
Filename L:\Ripped by Saoshya\Nuova Era 7117 Alessandro Scarlatti - Cantata Natalizia (Alessandro Stradella Consort, Esteban Velardi)\CDImage\A Scarlatti - Cantata Natalizia - Alessandro Stradella Consort.wav
Peak level 100.0 %
Range quality 99.8 %
Test CRC F63E606E
Copy CRC F63E606E
Copy OK
No errors occurred
AccurateRip summary
Track 1 cannot be verified as accurate (confidence 2) [5D6C8697], AccurateRip returned [CFAA47EA]
Track 2 cannot be verified as accurate (confidence 2) [BDB96E32], AccurateRip returned [E0221381]
Track 3 cannot be verified as accurate (confidence 2) [5E243EB2], AccurateRip returned [BC9BF088]
Track 4 cannot be verified as accurate (confidence 2) [E4CD9E0D], AccurateRip returned [3672220D]
Track 5 cannot be verified as accurate (confidence 2) [D6F68138], AccurateRip returned [E3008381]
Track 6 cannot be verified as accurate (confidence 2) [82DC20F5], AccurateRip returned [D5269AEA]
Track 7 cannot be verified as accurate (confidence 2) [9C595C9B], AccurateRip returned [9C9188C9]
Track 8 cannot be verified as accurate (confidence 2) [200CE724], AccurateRip returned [3A4F5F92]
Track 9 cannot be verified as accurate (confidence 2) [FAF20412], AccurateRip returned [24F578A0]
Track 10 cannot be verified as accurate (confidence 2) [09C99BDA], AccurateRip returned [591E0E33]
Track 11 cannot be verified as accurate (confidence 2) [2ED439BF], AccurateRip returned [44D003F7]
Track 12 cannot be verified as accurate (confidence 2) [DAD142E3], AccurateRip returned [438D58CC]
Track 13 cannot be verified as accurate (confidence 2) [CF3AFDD6], AccurateRip returned [4497BC35]
Track 14 cannot be verified as accurate (confidence 2) [BAA429C1], AccurateRip returned [B7E41921]
Track 15 cannot be verified as accurate (confidence 2) [681B1CDD], AccurateRip returned [8074B598]
Track 16 cannot be verified as accurate (confidence 2) [337DC8DE], AccurateRip returned [C90BCE99]
Track 17 cannot be verified as accurate (confidence 2) [72124ABE], AccurateRip returned [E1A1410D]
Track 18 cannot be verified as accurate (confidence 2) [62A1D838], AccurateRip returned [8AB2C355]
Track 19 cannot be verified as accurate (confidence 2) [CC3A0492], AccurateRip returned [B2318C67]
Track 20 cannot be verified as accurate (confidence 2) [390E9517], AccurateRip returned [F41FBE8A]
Track 21 cannot be verified as accurate (confidence 2) [1F087501], AccurateRip returned [BB681A33]
Track 22 cannot be verified as accurate (confidence 2) [7DAD11F3], AccurateRip returned [3F14140F]
Track 23 cannot be verified as accurate (confidence 2) [DCE4E4D7], AccurateRip returned [8F41E30A]
Track 24 cannot be verified as accurate (confidence 2) [5A7D3002], AccurateRip returned [CC901C12]
Track 25 cannot be verified as accurate (confidence 2) [60881A2A], AccurateRip returned [128F4E51]
Track 26 cannot be verified as accurate (confidence 2) [5B819CA4], AccurateRip returned [3C5C3792]
Track 27 cannot be verified as accurate (confidence 2) [6A4AF2AD], AccurateRip returned [5B088102]
Track 28 cannot be verified as accurate (confidence 2) [B0B043CB], AccurateRip returned [9B2048C6]
Track 29 cannot be verified as accurate (confidence 2) [4370DB6B], AccurateRip returned [E48709D9]
Track 30 cannot be verified as accurate (confidence 2) [91E4330B], AccurateRip returned [81055BAB]
No tracks could be verified as accurate
You may have a different pressing from the one(s) in the database
End of status report



Показать сообщения:    

Текущее время: 07-Дек 19:29

Часовой пояс: UTC + 3


Вы не можете начинать темы
Вы не можете отвечать на сообщения
Вы не можете редактировать свои сообщения
Вы не можете удалять свои сообщения
Вы не можете голосовать в опросах
Вы не можете прикреплять файлы к сообщениям
Вы не можете скачивать файлы