(Classical) Мендельсон – Соната для кларнета; Фортепианное трио с альтом; Секстет / Mendelssohn ­– «The Young Genius»: Sextet, Clarinet Sonata, Piano Trio (Van Swieten Society: van den Brink, van Oort et al.) - 2012, FLAC (image+.cue) lossless


 

[Цитировать]

Мендельсон – Соната для кларнета; Фортепианное трио с альтом; Секстет / Mendelssohn ­– «The Young Genius» – Early Chamber music: Sextet, Clarinet Sonata, Piano Trio (Van Swieten Society: van den Brink, van Oort, Polman, Рухадзе, Verhagen, Sanderse, ter Haar, Sumiya)
Жанр: Classical
Страна-производитель диска: Голландия
Год издания диска: 2012
Издатель (лейбл): Quintone
Номер по каталогу: Q09004
Дата записи: июнь — июль 2009 г., Девентер.
Аудиокодек: FLAC
Тип рипа: image+.cue
Битрейт аудио: lossless
Продолжительность: 01:08:17
Источник: odeonmusic
Наличие сканов в содержимом раздачи: да
Треклист:
Якоб Людвиг Феликс Мендельсон Бартольди (1809 — 1847).
Секстет D-dur для фортепиано, скрипки, двух альтов, виолончели и контрабаса, op. 110 (1824).
01. I. Allegro vivace [11:41].
02. II. Adagio [04:28].
03. III. Menuetto. Agitato. — Trio. — Menuetto da capo [02:14].
04. IV. Finale. Allegro vivace. — Agitato. — Allegro con fuoco. [10:49].
Соната Es-dur для кларнета и фортепиано, MWV Q15 (1824).
05. I. Adagio. — Allegro moderato [11:02].
06. II. Andante [05:10].
07. III. Allegro moderato [06:19].
Трио c-moll для фортепиано, скрипки и альта, MWV Q3 (1820).
08. I. Allegro [05:13].
09. II. Scherzo [01:40].
10. III. Adagio [06:13].
11. IV. Allegro [03:24].
Исполнители:
Van Swieten Society:
Frank van den Brink (кларнет),
Bart van Oort (фортепиано),
Franc Polman (скрипка, 1 — 4),
Игорь Рухадзе (скрипка, 8 — 11),
Bernadette Verhagen (альт),
Ruben Sanderse (альт, 1 — 4),
Job ter Haar (виолончель),
Tomoki Sumiya (контрабас).
На инструментах эпохи.

Лог создания рипа

Exact Audio Copy V1.0 beta 3 from 29. August 2011
EAC extraction logfile from 27. August 2014, 12:13
Van Swieten Society / Mendelssohn - 'The Young Genius'-Early Chamber Music - Van Swieten Society
Used drive : TSSTcorpCDDVDW SH-222BB Adapter: 2 ID: 1
Read mode : Secure
Utilize accurate stream : Yes
Defeat audio cache : Yes
Make use of C2 pointers : No
Read offset correction : 6
Overread into Lead-In and Lead-Out : No
Fill up missing offset samples with silence : Yes
Delete leading and trailing silent blocks : No
Null samples used in CRC calculations : Yes
Used interface : Native Win32 interface for Win NT & 2000
Used output format : User Defined Encoder
Selected bitrate : 896 kBit/s
Quality : High
Add ID3 tag : No
Command line compressor : C:\Program Files\Exact Audio Copy\FLAC\FLAC.EXE
Additional command line options : -8 -V -T "TITLE=%title%" -T "ARTIST=%artist%" -T "ALBUMARTIST=%albumartist%" -T "ALBUM=%albumtitle%" -T "DATE=%year%" -T "TRACKNUMBER=%tracknr%" -T "TRACKTOTAL=%numtracks%" -T "GENRE=%genre%" -T "COMMENT=%comment%" -T "PERFORMER=%albuminterpret%" -T "COMPOSER=%composer%" %source% -o %dest%
TOC of the extracted CD
Track | Start | Length | Start sector | End sector
---------------------------------------------------------
1 | 0:00.00 | 11:41.25 | 0 | 52599
2 | 11:41.25 | 4:29.48 | 52600 | 72822
3 | 16:10.73 | 2:14.58 | 72823 | 82930
4 | 18:25.56 | 10:51.72 | 82931 | 131827
5 | 29:17.53 | 10:59.25 | 131828 | 181277
6 | 40:17.03 | 5:12.58 | 181278 | 204735
7 | 45:29.61 | 6:18.31 | 204736 | 233116
8 | 51:48.17 | 5:12.71 | 233117 | 256587
9 | 57:01.13 | 1:40.49 | 256588 | 264136
10 | 58:41.62 | 6:12.35 | 264137 | 292071
11 | 64:54.22 | 3:22.27 | 292072 | 307248
Range status and errors
Selected range
Filename G:\Ripped general\[7823] Mendelssohn – 'The Young Genius'-Early Chamber Music – Van Swieten Society\Mendelssohn - 'The Young Genius'-Early Chamber Music - Van Swieten Society.wav
Peak level 98.1 %
Extraction speed 6.7 X
Range quality 100.0 %
Test CRC 9D304806
Copy CRC 9D304806
Copy OK
No errors occurred
AccurateRip summary
Track 1 not present in database
Track 2 not present in database
Track 3 not present in database
Track 4 not present in database
Track 5 not present in database
Track 6 not present in database
Track 7 not present in database
Track 8 not present in database
Track 9 not present in database
Track 10 not present in database
Track 11 not present in database
None of the tracks are present in the AccurateRip database
End of status report
==== Log checksum C928BB1E48D2EB72EF774529BB213CA491FA22CEE626C3FC00C2DC33705F980C ====

Содержание индексной карты (.CUE)

REM GENRE Classical
REM DISCID 9210000B
REM COMMENT "ExactAudioCopy v1.0b3"
PERFORMER "Van Swieten Society"
TITLE "Mendelssohn – 'The Young Genius' (Early Chamber Music) – Van Swieten Society"
FILE "Mendelssohn – 'The Young Genius' (Early Chamber Music) – Van Swieten Society.flac" WAVE
TRACK 01 AUDIO
TITLE "Sextet for Piano and Strings in D major, Op. 110 (1824) - I. Allegro vivace"
PERFORMER "Van Swieten Society"
ISRC NLCT20904001
INDEX 01 00:00:00
TRACK 02 AUDIO
TITLE "Sextet for Piano and Strings in D major, Op. 110 (1824) - II. Adagio"
PERFORMER "Van Swieten Society"
ISRC NLCT20904002
INDEX 01 11:41:25
TRACK 03 AUDIO
TITLE "Sextet for Piano and Strings in D major, Op. 110 (1824) - III. Minuetto"
PERFORMER "Van Swieten Society"
ISRC NLCT20904003
INDEX 01 16:10:73
TRACK 04 AUDIO
TITLE "Sextet for Piano and Strings in D major, Op. 110 (1824) - IV. Finale. Allegro vivace"
PERFORMER "Van Swieten Society"
ISRC NLCT20904004
INDEX 01 18:25:56
TRACK 05 AUDIO
TITLE "Clarinet Sonata in E flat major (1824) - I. Adagio - Allegro moderato"
PERFORMER "Van Swieten Society"
ISRC NLCT20904005
INDEX 01 29:17:53
TRACK 06 AUDIO
TITLE "Clarinet Sonata in E flat major (1824) - II. Andante"
PERFORMER "Van Swieten Society"
ISRC NLCT20904006
INDEX 01 40:17:03
TRACK 07 AUDIO
TITLE "Clarinet Sonata in E flat major (1824) - III. Allegro moderato"
PERFORMER "Van Swieten Society"
ISRC NLCT20904007
INDEX 01 45:29:61
TRACK 08 AUDIO
TITLE "Piano Trio in C minor (1820) - I. Allegro"
PERFORMER "Van Swieten Society"
ISRC NLCT20904008
INDEX 01 51:48:17
TRACK 09 AUDIO
TITLE "Piano Trio in C minor (1820) - II. Scherzo"
PERFORMER "Van Swieten Society"
ISRC NLCT20904009
INDEX 01 57:01:13
TRACK 10 AUDIO
TITLE "Piano Trio in C minor (1820) - III. Adagio"
PERFORMER "Van Swieten Society"
ISRC NLCT20904010
INDEX 01 58:41:62
TRACK 11 AUDIO
TITLE "Piano Trio in C minor (1820) - IV. Allegro"
PERFORMER "Van Swieten Society"
ISRC NLCT20904011
INDEX 01 64:54:22

Вариант индексной карты (.CUE) с выставленными зазорами

REM GENRE Classical
REM DISCID 9210000B
REM COMMENT "ExactAudioCopy v1.0b3"
PERFORMER "Van Swieten Society"
TITLE "Mendelssohn – 'The Young Genius' (Early Chamber Music) – Van Swieten Society"
FILE "Mendelssohn – 'The Young Genius' (Early Chamber Music) – Van Swieten Society.flac" WAVE
TRACK 01 AUDIO
TITLE "Sextet for Piano and Strings in D major, Op. 110 (1824) - I. Allegro vivace"
PERFORMER "Van Swieten Society"
ISRC NLCT20904001
INDEX 01 00:00:00
TRACK 02 AUDIO
TITLE "Sextet for Piano and Strings in D major, Op. 110 (1824) - II. Adagio"
PERFORMER "Van Swieten Society"
ISRC NLCT20904002
INDEX 00 11:38:52
INDEX 01 11:41:25
TRACK 03 AUDIO
TITLE "Sextet for Piano and Strings in D major, Op. 110 (1824) - III. Minuetto"
PERFORMER "Van Swieten Society"
ISRC NLCT20904003
INDEX 01 16:10:73
TRACK 04 AUDIO
TITLE "Sextet for Piano and Strings in D major, Op. 110 (1824) - IV. Finale. Allegro vivace"
PERFORMER "Van Swieten Society"
ISRC NLCT20904004
INDEX 01 18:25:56
TRACK 05 AUDIO
TITLE "Clarinet Sonata in E flat major (1824) - I. Adagio - Allegro moderato"
PERFORMER "Van Swieten Society"
ISRC NLCT20904005
INDEX 00 29:16:10
INDEX 01 29:17:53
TRACK 06 AUDIO
TITLE "Clarinet Sonata in E flat major (1824) - II. Andante"
PERFORMER "Van Swieten Society"
ISRC NLCT20904006
INDEX 00 40:15:56
INDEX 01 40:17:03
TRACK 07 AUDIO
TITLE "Clarinet Sonata in E flat major (1824) - III. Allegro moderato"
PERFORMER "Van Swieten Society"
ISRC NLCT20904007
INDEX 00 45:28:36
INDEX 01 45:29:61
TRACK 08 AUDIO
TITLE "Piano Trio in C minor (1820) - I. Allegro"
PERFORMER "Van Swieten Society"
ISRC NLCT20904008
INDEX 00 51:44:31
INDEX 01 51:48:17
TRACK 09 AUDIO
TITLE "Piano Trio in C minor (1820) - II. Scherzo"
PERFORMER "Van Swieten Society"
ISRC NLCT20904009
INDEX 00 56:58:31
INDEX 01 57:01:13
TRACK 10 AUDIO
TITLE "Piano Trio in C minor (1820) - III. Adagio"
PERFORMER "Van Swieten Society"
ISRC NLCT20904010
INDEX 00 58:40:40
INDEX 01 58:41:62
TRACK 11 AUDIO
TITLE "Piano Trio in C minor (1820) - IV. Allegro"
PERFORMER "Van Swieten Society"
ISRC NLCT20904011
INDEX 01 64:54:22



Показать сообщения:    

Текущее время: 10-Дек 11:57

Часовой пояс: UTC + 3


Вы не можете начинать темы
Вы не можете отвечать на сообщения
Вы не можете редактировать свои сообщения
Вы не можете удалять свои сообщения
Вы не можете голосовать в опросах
Вы не можете прикреплять файлы к сообщениям
Вы не можете скачивать файлы