Дом Бернарды Альбы (Евгений Марчелли) [2013 г., драма, SATRip] Российский государственный академический театр драмы имени Федора Волкова г. Ярославль


 

[Цитировать]

Дом Бернарды Альбы Название театра: Российский государственный академический театр драмы имени Федора Волкова г. Ярославль.
Год выпуска: 2013.
Жанр: драма.
Продолжительность: 01:57:12.
Режиссер: заслуженный деятель искусств России Евгений Марчелли.
Действующие лица и исполнители:
Бернарда – заслуженная артистка России Татьяна Малькова,
Мария Хосефа, мать Бернарды - заслуженная артистка России Татьяна Позднякова,
Ангустиас, дочь Бернарды - заслуженная артистка России Ирина Сидорова,
Магдалена, дочь Бернарды - Анастасия Светлова,
Амелия, дочь Бернарды - Александра Чилин-Гири,
Мартирио, дочь Бернарды – Ирина Наумкина,
Адела, дочь Бернарды – Анна Ткачева,
Понсия, служанка – Наталья Асанкина,
Служанка - Любовь Ветошкина,
Пруденсия – Наталья Кучеренко.
В спектакле также заняты:
заслуженная артистка России Галина Крылова, Людмила Пошехонова, Ольга Старк, Наталья Мацюк, Евгения Долгова, Ирина Веселова, Виталий Даушев, Игорь Есипович, Семен Иванов, Кирилл Искратов, Николай Красноперов, Владимир Майзингер, Николай Шрайбер.
О спектакле:
Взаимоотношения полов – дорога, которой режиссер Евгений Марчелли идет уже много лет. В "Доме Бернарды Альбы" мужчины вовсе нет, но он незримо присутствует в желаниях, фантазиях, он – та невидимая ось, вокруг которой вертится планета женщин. "Бернарда Альба", как и многие другие спектакли Марчелли, придуман на художественных контрастах. Одни сцены разворачиваются в режиме реального времени: ровно столько, сколько уйдет на то, чтобы, подоткнув юбки и расплескивая воду из алюминиевых ведер, отдраить пол. Другие сцены, напротив, лишены реализма – это мир фантазий, мифов, неосознанных желаний.
Дополнительная информация:
Страна: Россия .
Выпущено: Культура.рф.
Автор: Федерико Гарсиа Лорка.
Художник: Илья Кутянский.
Хореограф: Елена Прокопьева
Художник по костюмам: Фагиля Сельская
Композитор: Игорь Есипович
Художник по свету: Дмитрий Зименко.
Премьера спектакля состоялась 26 октября 2012 года.

О спектакле.
Релиз

Качество видео:...SATRip
Формат:.................AVI
Видео:..720x400 (1.80:1), 25 fps, XviD MPEG-4 ~1532 kbps avg, 0.21 bit/pixel
Аудио:..44.100 kHz, MPEG Layer 3, 2 ch, ~128.00 kbps avg

Отчет MI

Общее
Полное имя : Dom.Bernardy.Alby_RGATD.im.F.Volkova.Yaroslavl'.2013.XviD.SATRip.fenixclub.avi
Format : AVI
Format/Info : Audio Video Interleave
File size : 1.37 GiB
Duration : 1h 57mn
Overall bit rate : 1 671 Kbps
Writing application : VirtualDubModRus 1.5.10.2 (build 2542/release)
Writing library : VirtualDub build 32842/release
Video
ID : 0
Format : MPEG-4 Visual
Format profile : Advanced Simple@L5
Format settings, BVOP : 2
Format settings, QPel : No
Format settings, GMC : No warppoints
Format settings, Matrix : Default (H.263)
Muxing mode : Packed bitstream
Codec ID : XVID
Codec ID/Hint : XviD
Duration : 1h 57mn
Bit rate : 1 533 Kbps
Width : 720 pixels
Height : 400 pixels
Display aspect ratio : 16:9
Frame rate : 25.000 fps
Color space : YUV
Chroma subsampling : 4:2:0
Bit depth : 8 bits
Scan type : Progressive
Compression mode : Lossy
Bits/(Pixel*Frame) : 0.213
Stream size : 1.26 GiB (92%)
Writing library : XviD 1.2.1 (UTC 2008-12-04)
Audio
ID : 1
Format : MPEG Audio
Format version : Version 1
Format profile : Layer 3
Mode : Joint stereo
Mode extension : MS Stereo
Codec ID : 55
Codec ID/Hint : MP3
Duration : 1h 57mn
Bit rate mode : Constant
Bit rate : 128 Kbps
Channel(s) : 2 channels
Sampling rate : 44.1 KHz
Compression mode : Lossy
Stream size : 107 MiB (8%)
Alignment : Split accross interleaves
Interleave, duration : 40 ms (1.00 video frame)
Interleave, preload duration : 500 ms
Writing library : LAME3.98

Скриншоты


Альтернативный хост





Показать сообщения:    

Текущее время: 10-Дек 09:58

Часовой пояс: UTC + 3


Вы не можете начинать темы
Вы не можете отвечать на сообщения
Вы не можете редактировать свои сообщения
Вы не можете удалять свои сообщения
Вы не можете голосовать в опросах
Вы не можете прикреплять файлы к сообщениям
Вы не можете скачивать файлы