(Classical) Гуммель – Сонаты виолончельная, фортепианная № 5; Вариации на русскую тему / Hummel – Variations (Flute Trio); Piano (No. 5) & Cello Sonatas (Andras Adorjan, Борис Пергаменщиков, Павел Гилилов) - 1993, FLAC (image+.cue) lossless


 

[Цитировать]

Гуммель – Сонаты виолончельная, фортепианная № 5; Вариации на русскую тему / Hummel – Variations (Flute Trio) on a Russian theme; Piano (No. 5) & Cello Sonatas (András Adorján, Борис Пергаменщиков, Павел Гилилов / Pergamenschikow, Gililov)
Жанр: Classical
Страна-производитель диска: Германия
Год издания диска: 1993
Издатель (лейбл): ORFEO
Номер по каталогу: C 252 931 A
Дата записи: 23 — 25 апреля 1991 г., Мюнхен.
Аудиокодек: FLAC
Тип рипа: image+.cue
Битрейт аудио: lossless
Продолжительность: 01:11:16
Источник: odeonmusic
Наличие сканов в содержимом раздачи: да
Треклист:
Иоганн Непомук Гуммель (1778 — 1837).
Адажио, вариации и рондо a-moll (A-dur) на русскую тему [«Ехал козак за Дунай»] для фортепиано, флейты и виолончели, op. 78 (ок. 1818).
01. Вступление. Cantabile. — [04:18].
02. Тема. Quasi allegretto. — [00:55].
03. — Вариация I. — [01:19].
04. — Вариация II. — [01:35].
05. — Вариация III. — [00:47].
06. — Вариация IV. — [01:51].
07. — Вариация V. — [01:00].
08. — Вариация VI. Adagio assai. — [02:49].
09. — Вариация VII. Finale. Vivace assai [02:53].
Большая соната для фортепиано и виолончели A-dur, op. 104 (1824).
10. I. Allegro amabile e grazioso [11:10].
11. II. Romanza. Un poco adagio e con espressione [05:49].
12. III. Rondò. Allegretto vivace un poco [07:08].
Фортепианная соната № 5 fis-moll, op. 81 (опубл. 1819).
13. I. Allegro [09:23].
14. II. Largo con molt' espressione [10:30].
15. III. Finale. Vivace [09:04].
Исполнители:
András Adorján (флейта),
Борис Пергаменщиков (виолончель),
Павел Гилилов (фортепиано).

Лог создания рипа

Exact Audio Copy V1.0 beta 3 from 29. August 2011
EAC extraction logfile from 13. June 2013, 9:19
Various Artists / Hummel - Trio, Cello Sonata - VA
Used drive : TSSTcorpCDDVDW SH-222BB Adapter: 2 ID: 1
Read mode : Secure
Utilize accurate stream : Yes
Defeat audio cache : Yes
Make use of C2 pointers : No
Read offset correction : 6
Overread into Lead-In and Lead-Out : No
Fill up missing offset samples with silence : Yes
Delete leading and trailing silent blocks : No
Null samples used in CRC calculations : Yes
Used interface : Native Win32 interface for Win NT & 2000
Used output format : User Defined Encoder
Selected bitrate : 1024 kBit/s
Quality : High
Add ID3 tag : No
Command line compressor : C:\Program Files\Exact Audio Copy\Flac\flac.exe
Additional command line options : -8 -V -T "TITLE=%title%" -T "ARTIST=%artist%" -T "ALBUMARTIST=%albumartist%" -T "ALBUM=%albumtitle%" -T "DATE=%year%" -T "TRACKNUMBER=%tracknr%" -T "TRACKTOTAL=%numtracks%" -T "GENRE=%genre%" -T "COMMENT=%comment%" -T "PERFORMER=%albuminterpret%" -T "COMPOSER=%composer%" %source% -o %dest%
TOC of the extracted CD
Track | Start | Length | Start sector | End sector
---------------------------------------------------------
1 | 0:00.07 | 4:19.00 | 7 | 19431
2 | 4:19.07 | 0:54.63 | 19432 | 23544
3 | 5:13.70 | 1:18.60 | 23545 | 29454
4 | 6:32.55 | 1:35.22 | 29455 | 36601
5 | 8:08.02 | 0:47.30 | 36602 | 40156
6 | 8:55.32 | 1:51.15 | 40157 | 48496
7 | 10:46.47 | 1:01.13 | 48497 | 53084
8 | 11:47.60 | 2:48.70 | 53085 | 65754
9 | 14:36.55 | 3:03.42 | 65755 | 79521
10 | 17:40.22 | 11:14.60 | 79522 | 130131
11 | 28:55.07 | 5:52.38 | 130132 | 156569
12 | 34:47.45 | 7:22.37 | 156570 | 189756
13 | 42:10.07 | 9:28.00 | 189757 | 232356
14 | 51:38.07 | 10:33.00 | 232357 | 279831
15 | 62:11.07 | 9:05.28 | 279832 | 320734
Range status and errors
Selected range
Filename G:\Ripped general\[2184] Hummel – Trio, Cello Sonata – VA\Hummel - Trio, Cello Sonata - VA.wav
Peak level 67.6 %
Extraction speed 2.3 X
Range quality 100.0 %
Test CRC 24CA7695
Copy CRC 24CA7695
Copy OK
No errors occurred
AccurateRip summary
Track 1 not present in database
Track 2 not present in database
Track 3 not present in database
Track 4 not present in database
Track 5 not present in database
Track 6 not present in database
Track 7 not present in database
Track 8 not present in database
Track 9 not present in database
Track 10 cannot be verified as accurate (confidence 1) [BD1F0344], AccurateRip returned [3FF04C18] (AR v2)
Track 11 cannot be verified as accurate (confidence 1) [AB5A0237], AccurateRip returned [CDFF3FD3] (AR v2)
Track 12 cannot be verified as accurate (confidence 1) [3AC0C017], AccurateRip returned [F420A59D] (AR v2)
Track 13 cannot be verified as accurate (confidence 1) [F9EF7041], AccurateRip returned [9A26D615] (AR v2)
Track 14 cannot be verified as accurate (confidence 1) [6C41EC2D], AccurateRip returned [7FAD22DF] (AR v2)
Track 15 cannot be verified as accurate (confidence 1) [554C10FD], AccurateRip returned [7CE88FCA] (AR v2)
6 track(s) could not be verified as accurate
9 track(s) not present in the AccurateRip database
No tracks could be verified as accurate
You may have a different pressing from the one(s) in the database
End of status report

Содержание индексной карты (.CUE)

REM GENRE Classical
REM DATE 1993
REM DISCID C710B40F
REM COMMENT "ExactAudioCopy v1.0b3"
PERFORMER "Andras Adorjan, Boris Pergamenschikow & Pavel Gililov"
TITLE "Hummel – Flute Trio, Cello Sonata & Piano Sonata No. 5"
FILE "Hummel – Flute Trio, Cello Sonata & Piano Sonata No. 5.flac" WAVE
TRACK 01 AUDIO
TITLE "Adagio, Variations & Rondo in A major, Op. 78 - Introduction. Cantabile -"
PERFORMER "Andras Adorjan & Pavel Gililov"
INDEX 00 00:00:00
INDEX 01 00:00:07
TRACK 02 AUDIO
TITLE "Adagio, Variations & Rondo in A major, Op. 78 - Thema. Quasi allegretto -"
PERFORMER "Andras Adorjan & Pavel Gililov"
INDEX 00 04:18:72
INDEX 01 04:19:07
TRACK 03 AUDIO
TITLE "Adagio, Variations & Rondo in A major, Op. 78 - Variation I -"
PERFORMER "Andras Adorjan & Pavel Gililov"
INDEX 01 05:13:70
TRACK 04 AUDIO
TITLE "Adagio, Variations & Rondo in A major, Op. 78 - Variation II -"
PERFORMER "Andras Adorjan & Pavel Gililov"
INDEX 00 06:32:47
INDEX 01 06:32:55
TRACK 05 AUDIO
TITLE "Adagio, Variations & Rondo in A major, Op. 78 - Variation III -"
PERFORMER "Andras Adorjan & Pavel Gililov"
INDEX 00 08:07:47
INDEX 01 08:08:02
TRACK 06 AUDIO
TITLE "Adagio, Variations & Rondo in A major, Op. 78 - Variation IV -"
PERFORMER "Andras Adorjan & Pavel Gililov"
INDEX 01 08:55:32
TRACK 07 AUDIO
TITLE "Adagio, Variations & Rondo in A major, Op. 78 - Variation V -"
PERFORMER "Andras Adorjan & Pavel Gililov"
INDEX 00 10:46:35
INDEX 01 10:46:47
TRACK 08 AUDIO
TITLE "Adagio, Variations & Rondo in A major, Op. 78 - Variation VI. Adagio assai -"
PERFORMER "Andras Adorjan & Pavel Gililov"
INDEX 00 11:46:67
INDEX 01 11:47:60
TRACK 09 AUDIO
TITLE "Adagio, Variations & Rondo in A major, Op. 78 - Variation VII. Finale. Vivace assai"
PERFORMER "Andras Adorjan & Pavel Gililov"
INDEX 01 14:36:55
TRACK 10 AUDIO
TITLE "Cello Sonata in A major, Op. 104 - I. Allegro amabile e grazioso"
PERFORMER "Boris Pergamenschikow & Pavel Gililov"
INDEX 00 17:29:35
INDEX 01 17:40:22
TRACK 11 AUDIO
TITLE "Cello Sonata in A major, Op. 104 - II. Romanze. Un poco adagio e con espressione"
PERFORMER "Boris Pergamenschikow & Pavel Gililov"
INDEX 00 28:50:60
INDEX 01 28:55:07
TRACK 12 AUDIO
TITLE "Cello Sonata in A major, Op. 104 - III. Rondo. Allegro vivace un poco"
PERFORMER "Boris Pergamenschikow & Pavel Gililov"
INDEX 00 34:44:72
INDEX 01 34:47:45
TRACK 13 AUDIO
TITLE "Piano Sonata No. 5 in F sharp minor, Op. 81 - I. Allegro"
PERFORMER "Pavel Gililov"
INDEX 00 41:55:35
INDEX 01 42:10:07
TRACK 14 AUDIO
TITLE "Piano Sonata No. 5 in F sharp minor, Op. 81 - II. Largo con molt' espressione"
PERFORMER "Pavel Gililov"
INDEX 00 51:33:35
INDEX 01 51:38:07
TRACK 15 AUDIO
TITLE "Piano Sonata No. 5 in F sharp minor, Op. 81 - III. Finale. Vivace"
PERFORMER "Pavel Gililov"
INDEX 00 62:09:35
INDEX 01 62:11:07



Показать сообщения:    

Текущее время: 04-Дек 09:05

Часовой пояс: UTC + 3


Вы не можете начинать темы
Вы не можете отвечать на сообщения
Вы не можете редактировать свои сообщения
Вы не можете удалять свои сообщения
Вы не можете голосовать в опросах
Вы не можете прикреплять файлы к сообщениям
Вы не можете скачивать файлы