(Baroque cantata) Scarlatti Alessandro - Cantatas with recorder (Collegium Pro Musica, Alan Curtis) - 1993, FLAC (image+.cue) lossless


Статистика раздачи [Обновить пиров]
Размер:  456 MB   |    Зарегистрирован:  8 месяцев 22 дня   |    Скачан:  0 раз

Полного источника не было: Никогда

Личеров:  6  [  0 KB/s  ]   Подробная статистика пиров
 
   
 
 
 

[Цитировать]

Alessandro Scarlatti - Cantatas with recorder

Жанр: Baroque cantata
Страна-производитель диска: Made in Germany
Год издания диска: 1993
Издатель (лейбл): NUOVA ERA RECORDS
Номер по каталогу: 7162
Дата записи: 1992
Аудиокодек: FLAC
Тип рипа: image+.cue
Битрейт аудио: lossless
Продолжительность: 63'53
Источник: релизер
сайт-источник/ник/другое: Saoshya and Meeting in Music blogspot
Наличие сканов в содержимом раздачи: да
Треклист:

скрытый текст

1-4 Cantata "Clori mia, Clori bella" 9'32
5-9 Cantata "Filli che esprime la sua fede" 14'39
10 Variation on "La Follia" for harpsicord 7'27
11-14 Cantata "Ardo è ver per te d'amore" 11'40
15-19 Concerto in A minor for recorder, 2 violins and b.c. 10'09
20-23 Cantata "Tu sei quella che al nome sembri giusta" 9'14

скрытый текст

01. Clori mia, Clori bella i. Rec. 'Clori mia, Clori bell, ah non più mia' 01:05
02. ii. Aria 'Onde chiare che spargete mormorando' 05:03
03. iii. Rec. 'Sì, sì, narraregli pur bell’onde' 00:55
04. iv. Aria 'Parla il cor, fatto loquace' 02:32
05. Filli che esprime la sua fede a Fileno i. (Introduzione) Lento-Allegro 02:17
06. ii. Rec. 'Filen, mio caro bene' 01:15
07. iii. Aria 'Chiedi pur ai monti' 05:24
08. iv. Rec. Ma se prova bastante' 00:50
09. v. Aria 'Che ti sembra son fedele' 04:53
10. Variazioni su “La Follia” per clavicembalo solo 07:27
11. Ardo è ver per te d’amore i. Rec. 'Bella s’io t’amo il sai' 00:52
12. ii. Aria 'Ardo è ver per te d’amore' 05:27
13. iii. Rec. 'T’amo sì, t’amo o Cara' 01:26
14. iv. Aria 'Quel vento che d’intorno' 03:55
15. Concerto in La Minore per flauto, violini e b.c. - I. Allegro 02:04
16. II. Largo 01:33
17. III. Fuga 02:48
18. IV. Piano 01:38
19. V. Allegro 02:07
20. Tu sei quella che al nome i. Rec. 'Tu sei quella che al nome' 00:54
21. ii. Aria 'Dal nome tuo credei' 03:00
22. iii. Rec. 'Fedeltade ne pur ottien ricetto' 01:22
23. iv. Aria 'Il nome non vanta' 04:01
Исполнители:

скрытый текст

ALESSANDRO SCARLATTI
Cantatas with recorder
Silvia Piccollo, soprano
Roberto Balconi, alto
Stefano Bagliano, recorder
Collegium Pro Musica
Alan Curtis, harpsicord and direction
Recording: Genova, 1992

Лог создания рипа

Exact Audio Copy V0.99 prebeta 4 from 23. January 2008
EAC extraction logfile from 23. February 2014, 19:51
Collegium Pro Musica, Alan Curtis / Alessandro Scarlatti - Cantatas with Recorder
Used drive : SONY DVD-ROM DDU1615 Adapter: 0 ID: 0
Read mode : Secure
Utilize accurate stream : Yes
Defeat audio cache : Yes
Make use of C2 pointers : No
Read offset correction : 6
Overread into Lead-In and Lead-Out : No
Fill up missing offset samples with silence : Yes
Delete leading and trailing silent blocks : No
Null samples used in CRC calculations : Yes
Used interface : Native Win32 interface for Win NT & 2000
Used output format : User Defined Encoder
Selected bitrate : 1024 kBit/s
Quality : High
Add ID3 tag : No
Command line compressor : C:\Program Files\REACT\REACT.exe
Additional command line options : REACT %o %s %d "%a" "%g" "%t" "%n" "%x" "%y" "%m" "%e" "%f" "%b" %r
TOC of the extracted CD
Track | Start | Length | Start sector | End sector
---------------------------------------------------------
1 | 0:00.33 | 1:05.00 | 33 | 4907
2 | 1:05.33 | 5:03.50 | 4908 | 27682
3 | 6:09.08 | 0:55.25 | 27683 | 31832
4 | 7:04.33 | 2:32.25 | 31833 | 43257
5 | 9:36.58 | 2:17.25 | 43258 | 53557
6 | 11:54.08 | 1:15.50 | 53558 | 59232
7 | 13:09.58 | 5:24.00 | 59233 | 83532
8 | 18:33.58 | 0:50.12 | 83533 | 87294
9 | 19:23.70 | 4:53.50 | 87295 | 109319
10 | 24:17.45 | 7:27.38 | 109320 | 142882
11 | 31:45.08 | 0:52.37 | 142883 | 146819
12 | 32:37.45 | 5:27.63 | 146820 | 171407
13 | 38:05.33 | 1:26.12 | 171408 | 177869
14 | 39:31.45 | 3:55.63 | 177870 | 195557
15 | 43:27.33 | 2:04.45 | 195558 | 204902
16 | 45:32.03 | 1:33.17 | 204903 | 211894
17 | 47:05.20 | 2:48.13 | 211895 | 224507
18 | 49:53.33 | 1:38.62 | 224508 | 231919
19 | 51:32.20 | 2:07.13 | 231920 | 241457
20 | 53:39.33 | 0:54.10 | 241458 | 245517
21 | 54:33.43 | 3:00.10 | 245518 | 259027
22 | 57:33.53 | 1:22.30 | 259028 | 265207
23 | 58:56.08 | 4:01.25 | 265208 | 283307
Range status and errors
Selected range
Filename L:\Saoshya\Nuova Era 7162 Alessandro Scarlatti - Cantatas with Recorder (Collegium Pro Musica, Alan Curtis)\CDImage\Alessandro Scarlatti - Cantatas with Recorder - Collegium Pro Musica.wav
Peak level 97.7 %
Range quality 100.0 %
Test CRC F06314D0
Copy CRC F06314D0
Copy OK
No errors occurred
AccurateRip summary
Track 1 not present in database
Track 2 not present in database
Track 3 not present in database
Track 4 not present in database
Track 5 not present in database
Track 6 not present in database
Track 7 not present in database
Track 8 not present in database
Track 9 not present in database
Track 10 not present in database
Track 11 not present in database
Track 12 not present in database
Track 13 not present in database
Track 14 not present in database
Track 15 not present in database
Track 16 not present in database
Track 17 not present in database
Track 18 not present in database
Track 19 not present in database
Track 20 not present in database
Track 21 not present in database
Track 22 not present in database
Track 23 not present in database
None of the tracks are present in the AccurateRip database
End of status report
[teatrix.ru].t19195.torrent 
Торрент: Зарегистрирован [ 2016-03-18 12:48 ] · E5081F46A90710B92E99C0852382251C76FCFC78

Скачать .torrent

Скачать

20 KB

Статус: проверено
Скачан: 0 раз
Размер: 456 MB
terms.php



Быстрый ответ

Имя:

      
Для отправки сообщений необходимо включить JavaScript
Показать сообщения:    

Текущее время: 10-Дек 09:59

Часовой пояс: UTC + 3


Вы можете начинать темы
Вы можете отвечать на сообщения
Вы не можете редактировать свои сообщения
Вы не можете удалять свои сообщения
Вы не можете голосовать в опросах
Вы не можете прикреплять файлы к сообщениям
Вы можете скачивать файлы