(Baroque Cantata/Sinfonias) Stradella - Cantata for Christmas Eve * Sinfonias (Abbondanza, Calvi, Miatello - La Magnifica Comunita, Casazza) - 2008, APE (image+.cue) lossless


 

[Цитировать]

Alessandro Stradella - Cantata for Christmas Eve * Sinfonias
Жанр: Baroque Cantata/Sinfonias
Страна-производитель диска: Eu
Год издания диска: 2008
Издатель (лейбл): Brilliant Classics
Номер по каталогу: 93367
Дата записи: 1999
Аудиокодек: APE
Тип рипа: image+.cue
Битрейт аудио: lossless
Продолжительность: 51'07
Источник: собственный рип
Наличие сканов в содержимом раздачи: да
Треклист/Исполнители:
1. Sinfonia No. 2 for violin, cello & basso continuo
Cantata per il Santissimo Natale (Christmas Cantata)
2. Si apra al riso
3. Di Giubilo cotanto
4. Ritornello
5. Oh di notte felice
6. Ritornello
7. Con insoliti e dhiari splendori
8. Se la gregge mansueta
9. Temer più non lice
10. Or mirate il grande tonante
11. All'ignudo Redemtore
12. Con quel gel
13. Mentre ingemmano il Suo viso
14. E non si spezza tant'amore
15. Ritornello
16. O gran bontà
17. Sinfonia for 2 violins & basso continuo in A major
18. Sonata for violin & continuo in F major
Roberto Abbondanza, Bass
Caterina Calvi, Contralto
Cristina Miatello, Soprano
La Magnifica Comunità
Enrico Casazza

Лог создания рипа

Exact Audio Copy V1.0 beta 3 from 29. August 2011
EAC extraction logfile from 5. October 2014, 14:37
Stradella / Cantata for Christmas Eve_Siinfonias, Casazza
Used drive : TSSTcorpCDDVDW SE-208AB Adapter: 1 ID: 0
Read mode : Secure
Utilize accurate stream : Yes
Defeat audio cache : Yes
Make use of C2 pointers : No
Read offset correction : 6
Overread into Lead-In and Lead-Out : No
Fill up missing offset samples with silence : Yes
Delete leading and trailing silent blocks : No
Null samples used in CRC calculations : Yes
Used interface : Native Win32 interface for Win NT & 2000
Used output format : Monkey's Audio Lossless Encoder
Selected bitrate : High Lossless Compression
Quality : High
Add ID3 tag : Yes
Command line compressor : C:\Program Files (x86)\Exact Audio Copy\MAC\MAC.exe
TOC of the extracted CD
Track | Start | Length | Start sector | End sector
---------------------------------------------------------
1 | 0:00.00 | 7:18.54 | 0 | 32903
2 | 7:18.54 | 1:10.70 | 32904 | 38223
3 | 8:29.49 | 4:23.16 | 38224 | 57964
4 | 12:52.65 | 0:54.53 | 57965 | 62067
5 | 13:47.43 | 2:19.66 | 62068 | 72558
6 | 16:07.34 | 0:22.74 | 72559 | 74282
7 | 16:30.33 | 2:29.22 | 74283 | 85479
8 | 18:59.55 | 1:01.45 | 85480 | 90099
9 | 20:01.25 | 1:16.65 | 90100 | 95864
10 | 21:18.15 | 2:24.40 | 95865 | 106704
11 | 23:42.55 | 1:54.71 | 106705 | 115325
12 | 25:37.51 | 2:28.13 | 115326 | 126438
13 | 28:05.64 | 1:38.01 | 126439 | 133789
14 | 29:43.65 | 0:40.09 | 133790 | 136798
15 | 30:23.74 | 0:20.37 | 136799 | 138335
16 | 30:44.36 | 3:00.09 | 138336 | 151844
17 | 33:44.45 | 5:54.18 | 151845 | 178412
18 | 39:38.63 | 11:37.12 | 178413 | 230699
Range status and errors
Selected range
Filename D:\EAC\Stradella - Cantata for Christmas Eve_Siinfonias, Casazza.wav
Peak level 100.0 %
Extraction speed 4.2 X
Range quality 99.9 %
Test CRC 81863E70
Copy CRC 81863E70
Copy OK
No errors occurred
AccurateRip summary
Track 1 accurately ripped (confidence 3) [3B92DC7D] (AR v2)
Track 2 accurately ripped (confidence 3) [B179FD5E] (AR v2)
Track 3 accurately ripped (confidence 3) [31BB169E] (AR v2)
Track 4 accurately ripped (confidence 3) [DE79836F] (AR v2)
Track 5 accurately ripped (confidence 3) [5B2A1757] (AR v2)
Track 6 accurately ripped (confidence 3) [CD0D6727] (AR v2)
Track 7 accurately ripped (confidence 3) [AB1A3050] (AR v2)
Track 8 accurately ripped (confidence 3) [2329AA3C] (AR v2)
Track 9 accurately ripped (confidence 3) [110AA393] (AR v2)
Track 10 accurately ripped (confidence 3) [428F8274] (AR v2)
Track 11 accurately ripped (confidence 3) [2F102811] (AR v2)
Track 12 accurately ripped (confidence 3) [97AC30B5] (AR v2)
Track 13 accurately ripped (confidence 3) [80B0FC91] (AR v2)
Track 14 accurately ripped (confidence 3) [877208A7] (AR v2)
Track 15 accurately ripped (confidence 3) [F3D6DBD8] (AR v2)
Track 16 accurately ripped (confidence 3) [1327346F] (AR v2)
Track 17 accurately ripped (confidence 3) [96D33EBA] (AR v2)
Track 18 accurately ripped (confidence 3) [5514858B] (AR v2)
All tracks accurately ripped
End of status report
---- CUETools DB Plugin V2.1.3
[CTDB TOCID: OE38gOLxHoAn1Y_Uvf.9oV0ukEs-] found, Submit result: OE38gOLxHoAn1Y_Uvf.9oV0ukEs- has been confirmed
[cc4a3500] (1/1) Accurately ripped
==== Log checksum D5E254737A6A89B858A0C91929FC795A77F7C9595F94A51DE1E514E61902D627 ====

Содержание индексной карты (.CUE)

REM GENRE "Baroque Vocal"
REM DATE 1999
REM DISCID FC0C0412
REM COMMENT "ExactAudioCopy v1.0b3"
PERFORMER "Stradella"
TITLE "Cantata for Christmas Eve_Siinfonias, Casazza"
FILE "Stradella - Cantata for Christmas Eve_Siinfonias, Casazza.ape" WAVE
TRACK 01 AUDIO
TITLE "Sinfonia no.2"
PERFORMER "Stradella"
INDEX 01 00:00:00
TRACK 02 AUDIO
TITLE "Si apra al riso"
PERFORMER "Stradella"
INDEX 00 07:13:74
INDEX 01 07:18:54
TRACK 03 AUDIO
TITLE "Di Giubilo cotanto"
PERFORMER "Stradella"
INDEX 01 08:29:49
TRACK 04 AUDIO
TITLE "Ritornello"
PERFORMER "Stradella"
INDEX 01 12:52:65
TRACK 05 AUDIO
TITLE "Oh di notte felice"
PERFORMER "Stradella"
INDEX 01 13:47:43
TRACK 06 AUDIO
TITLE "Ritornello"
PERFORMER "Stradella"
INDEX 01 16:07:34
TRACK 07 AUDIO
TITLE "Con insoliti e chiari splendori"
PERFORMER "Stradella"
INDEX 01 16:30:33
TRACK 08 AUDIO
TITLE "Se la gregge mansueta"
PERFORMER "Stradella"
INDEX 01 18:59:55
TRACK 09 AUDIO
TITLE "Temer piu non lice"
PERFORMER "Stradella"
INDEX 01 20:01:25
TRACK 10 AUDIO
TITLE "Or mirate il grande tonante"
PERFORMER "Stradella"
INDEX 01 21:18:15
TRACK 11 AUDIO
TITLE "All'ignudo Redentore"
PERFORMER "Stradella"
INDEX 01 23:42:55
TRACK 12 AUDIO
TITLE "Con quel gel"
PERFORMER "Stradella"
INDEX 01 25:37:51
TRACK 13 AUDIO
TITLE "Mentre igemmano il Suo viso"
PERFORMER "Stradella"
INDEX 01 28:05:64
TRACK 14 AUDIO
TITLE "E non si spezza tant'amore"
PERFORMER "Stradella"
INDEX 01 29:43:65
TRACK 15 AUDIO
TITLE "Ritornello"
PERFORMER "Stradella"
INDEX 01 30:23:74
TRACK 16 AUDIO
TITLE "O gran bonta"
PERFORMER "Stradella"
INDEX 01 30:44:36
TRACK 17 AUDIO
TITLE "Sinfonia in A major"
PERFORMER "Stradella"
INDEX 00 33:37:24
INDEX 01 33:44:45
TRACK 18 AUDIO
TITLE "Sinfonia in F major"
PERFORMER "Stradella"
INDEX 00 39:34:28
INDEX 01 39:38:63



Показать сообщения:    

Текущее время: 18-Янв 00:25

Часовой пояс: UTC + 3


Вы не можете начинать темы
Вы не можете отвечать на сообщения
Вы не можете редактировать свои сообщения
Вы не можете удалять свои сообщения
Вы не можете голосовать в опросах
Вы не можете прикреплять файлы к сообщениям
Вы не можете скачивать файлы