(Baroque cantata) Alessandro Scarlatti - Cantatas (Nancy Argenta, Chandos Baroque Players) - 1991, FLAC (image+.cue) lossless


Статистика раздачи [Обновить пиров]
Размер:  386 MB   |    Зарегистрирован:  8 месяцев 22 дня   |    Скачан:  0 раз

Полного источника не было: Никогда

Личеров:  2  [  0 KB/s  ]   Подробная статистика пиров
 
   
 
 
 

[Цитировать]

Alessandro Scarlatti - Cantatas - Nancy Argenta

Жанр: Baroque cantata
Страна-производитель диска: Made in Germany
Год издания диска: 1991
Издатель (лейбл): EMI RECORDS LTD MIDDLESEX ENGLAND
Номер по каталогу: CDC 7 54176 2
Дата записи: 1989
Аудиокодек: FLAC
Тип рипа: image+.cue
Битрейт аудио: lossless
Продолжительность: 69'44
Источник: релизер
сайт-источник/ник/другое: Saoshya and Meeting in Music blogspot
Наличие сканов в содержимом раздачи: да
Треклист:

скрытый текст

01. per la natività di N.S.G.C. i. Introduction 01:40
02. ii. Recit. O di Betlemme altera 00:38
03. iii. Aria. Dal bel seno d’una stella 01:55
04. iv. Recit. Presa d’uomo la forma 00:46
05. v. Aria. L’Autor d’ogni mio bene 04:06
06. vi. Recit. Fortunati pastori 00:39
07. vii. Aria. Toccò la prima sorte a voi, pastori 06:58
08. Là dove a Mergellina i. Recit. Là dove a Mergellina 01:24
09. ii. Aria. Ami chi t’ama 05:36
10. iii. Recit. E sia che nell’istesso mio pensiero 01:23
11. iv. Aria. Mi fan guerra uniti insieme 03:42
12. Quella pace gradita i. Sinfonia. Andante - 02:09
13. ii. Andante 01:35
14. iii. Recit. Quella pace gradita 01:01
15. iv. Aria. Crudel tiranno Amore 04:46
16. v. Recit. O voi, selve beate 00:42
17. vi. Aria. Care selve, soggiorni quieti 02:42
18. vii. Recit. Lungi, lungi da me 01:03
19. viii. Aria. Teco, mesta tortorella 04:12
20. Dove voli, o mio pensiero? (Ariette No.15) 02:07
21. Aure leggiere, fermate il voto (Ariette No.16) 01:58
22. Le violette (Pirro e Demetrio 1694) Rugiadose, odorose 01:53
23. Hor che di Febo i. Sinfonia. Largo - Adagio 02:06
24. ii. Recit. Hor che di Febo ascosi 00:50
25. iii. Aria. Cara notte, che i furti giocondi 03:51
26. iv. Recit. Ma chi m’addita, o Dio 00:36
27. v. Aria. Sì non dormite 02:18
28. vi. Recit. Quindi dai vostri sguardi 01:10
29. vii. Aria. Vago fior ch’ in notte algente 02:22
30. viii. Recit. ma no. riposa, o bella 00:36
31. ix. Aria. Dormite, posate 02:46
Исполнители:

скрытый текст

Alessandro Scarlatti (1660-1725)
Cantatas
Nancy Argenta, soprano
Chandos Baroque Players

Лог создания рипа

Exact Audio Copy V0.99 prebeta 4 from 23. January 2008
EAC extraction logfile from 24. February 2014, 22:07
Nancy Argenta, Chandos Baroque Players / Alessandro Scarlatti - Cantatas
Used drive : SONY DVD-ROM DDU1615 Adapter: 0 ID: 0
Read mode : Secure
Utilize accurate stream : Yes
Defeat audio cache : Yes
Make use of C2 pointers : No
Read offset correction : 6
Overread into Lead-In and Lead-Out : No
Fill up missing offset samples with silence : Yes
Delete leading and trailing silent blocks : No
Null samples used in CRC calculations : Yes
Used interface : Native Win32 interface for Win NT & 2000
Used output format : User Defined Encoder
Selected bitrate : 1024 kBit/s
Quality : High
Add ID3 tag : No
Command line compressor : C:\Program Files\REACT\REACT.exe
Additional command line options : REACT %o %s %d "%a" "%g" "%t" "%n" "%x" "%y" "%m" "%e" "%f" "%b" %r
TOC of the extracted CD
Track | Start | Length | Start sector | End sector
---------------------------------------------------------
1 | 0:00.33 | 1:40.32 | 33 | 7564
2 | 1:40.65 | 0:38.28 | 7565 | 10442
3 | 2:19.18 | 1:55.07 | 10443 | 19074
4 | 4:14.25 | 0:46.15 | 19075 | 22539
5 | 5:00.40 | 4:06.03 | 22540 | 40992
6 | 9:06.43 | 0:39.17 | 40993 | 43934
7 | 9:45.60 | 6:58.70 | 43935 | 75354
8 | 16:44.55 | 1:24.18 | 75355 | 81672
9 | 18:08.73 | 5:36.50 | 81673 | 106922
10 | 23:45.48 | 1:23.57 | 106923 | 113204
11 | 25:09.30 | 3:42.43 | 113205 | 129897
12 | 28:51.73 | 2:09.70 | 129898 | 139642
13 | 31:01.68 | 1:35.20 | 139643 | 146787
14 | 32:37.13 | 1:01.57 | 146788 | 151419
15 | 33:38.70 | 4:46.53 | 151420 | 172922
16 | 38:25.48 | 0:42.02 | 172923 | 176074
17 | 39:07.50 | 2:42.48 | 176075 | 188272
18 | 41:50.23 | 1:03.65 | 188273 | 193062
19 | 42:54.13 | 4:12.22 | 193063 | 211984
20 | 47:06.35 | 2:07.08 | 211985 | 221517
21 | 49:13.43 | 1:58.27 | 221518 | 230394
22 | 51:11.70 | 1:53.50 | 230395 | 238919
23 | 53:05.45 | 2:06.70 | 238920 | 248439
24 | 55:12.40 | 0:50.43 | 248440 | 252232
25 | 56:03.08 | 3:51.57 | 252233 | 269614
26 | 59:54.65 | 0:36.20 | 269615 | 272334
27 | 60:31.10 | 2:18.00 | 272335 | 282684
28 | 62:49.10 | 1:10.58 | 282685 | 287992
29 | 63:59.68 | 2:22.60 | 287993 | 298702
30 | 66:22.53 | 0:36.12 | 298703 | 301414
31 | 66:58.65 | 2:46.08 | 301415 | 313872
Range status and errors
Selected range
Filename L:\Saoshya\EMI CDC7541762 Alessandro Scarlatti - Cantatas (Nancy Argenta, Chandos Baroque Players)\CDImage\Alessandro Scarlatti - Cantatas - Nancy Argenta.wav
Peak level 97.7 %
Range quality 99.9 %
Test CRC 1B98ECB9
Copy CRC 1B98ECB9
Copy OK
No errors occurred
AccurateRip summary
Track 1 accurately ripped (confidence 2) [099EB32B]
Track 2 accurately ripped (confidence 2) [0E8CE20D]
Track 3 accurately ripped (confidence 2) [47C5DC8E]
Track 4 accurately ripped (confidence 2) [E9422009]
Track 5 accurately ripped (confidence 2) [8DEFEF6C]
Track 6 accurately ripped (confidence 2) [2B0A4BF4]
Track 7 accurately ripped (confidence 2) [50FE31A1]
Track 8 accurately ripped (confidence 2) [2F5CE151]
Track 9 accurately ripped (confidence 2) [C777EF71]
Track 10 accurately ripped (confidence 2) [01195CA7]
Track 11 accurately ripped (confidence 2) [0C47FE58]
Track 12 accurately ripped (confidence 2) [3A79002D]
Track 13 accurately ripped (confidence 2) [09EDC8FA]
Track 14 accurately ripped (confidence 2) [3E122E1D]
Track 15 accurately ripped (confidence 2) [E494A46B]
Track 16 accurately ripped (confidence 2) [1171F291]
Track 17 accurately ripped (confidence 2) [8FC2BC2C]
Track 18 accurately ripped (confidence 2) [CBE1B1DE]
Track 19 accurately ripped (confidence 2) [3428A642]
Track 20 accurately ripped (confidence 2) [F0B92155]
Track 21 accurately ripped (confidence 2) [20A611E9]
Track 22 accurately ripped (confidence 2) [923E9890]
Track 23 accurately ripped (confidence 1) [B75558D7]
Track 24 accurately ripped (confidence 1) [4EBB2635]
Track 25 accurately ripped (confidence 2) [DC2C41DB]
Track 26 accurately ripped (confidence 2) [B0BE1BC0]
Track 27 accurately ripped (confidence 2) [D38C3936]
Track 28 accurately ripped (confidence 2) [2A0697DA]
Track 29 accurately ripped (confidence 2) [DB8D595D]
Track 30 accurately ripped (confidence 2) [43AD08A0]
Track 31 accurately ripped (confidence 2) [87A92D02]
All tracks accurately ripped
End of status report
[teatrix.ru].t19200.torrent 
Торрент: Зарегистрирован [ 2016-03-18 12:53 ] · C5D93B47ADAA735A88E60F6C7C921F725A2FE162

Скачать .torrent

Скачать

17 KB

Статус: проверено
Скачан: 0 раз
Размер: 386 MB
terms.php



Быстрый ответ

Имя:

      
Для отправки сообщений необходимо включить JavaScript
Показать сообщения:    

Текущее время: 09-Дек 20:32

Часовой пояс: UTC + 3


Вы можете начинать темы
Вы можете отвечать на сообщения
Вы не можете редактировать свои сообщения
Вы не можете удалять свои сообщения
Вы не можете голосовать в опросах
Вы не можете прикреплять файлы к сообщениям
Вы можете скачивать файлы