(Baroque sacred vocal) Alessandro Scarlatti - Missa Pro Defunctis, Salve Regina [Polifonia Sacra a Napoli tra XVI e XVIII secolo] (Ensemble Vocale di Napoli, Antonio Spagnolo) - 1994, FLAC (image+.cue) lossless


Статистика раздачи [Обновить пиров]
Размер:  362 MB   |    Зарегистрирован:  8 месяцев 16 дней   |    Скачан:  0 раз

Полного источника не было: Никогда

Личеров:  3  [  0 KB/s  ]   Подробная статистика пиров
 
   
 
 
 

[Цитировать]

Polifonia Sacra a Napoli tra XVI e XVIII secolo

Жанр: Baroque sacred vocal
Страна-производитель диска: Made in Italy
Год издания диска: 1994
Издатель (лейбл): fonè
Номер по каталогу: 94F01
Дата записи: 1994
Аудиокодек: FLAC
Тип рипа: image+.cue
Битрейт аудио: lossless
Продолжительность: 54'30
Источник: релизер
сайт-источник/ник/другое: Saoshya and Meeting in Music blogspot
Наличие сканов в содержимом раздачи: да
Треклист:

скрытый текст

01. A. Scarlatti - Missa Pro Defunctis. Requiem introitus 05:05
02. Kyrie 01:50
03. In memoria Aeterna graduale 02:43
04. Domine Jesu Christe offertorium 06:24
05. Sanctus 03:17
06. Agnus Dei 02:57
07. Lux Aeterna communio 03:50
08. Pomponio Nenna - In Monte Oliveti 03:06
09. Pomponio Nenna - Caligaverunt 03:24
10. Giovanni Maria Trabaci - Cum jucunditate 03:08
11. Gesualdo da Venosa - Ave dulcissima Maria 04:02
12. Gesualdo da Venosa - O vos omnes 02:50
13. Giovanni Salvatore - Peccantem me quotidie 04:15
14. A. Scarlatti - Salve Regina 07:31
Исполнители:

скрытый текст

Polifonia Sacra a Napoli tra XVI e XVIII secolo
Духовная музыка Alessandro Scarlatti, Pomponio Nenna, Giovanni Maria Trabaci, Gesualdo da Venosa,
Giovanni Salvatore
Ensemble Vocale di Napoli
Antonio Spagnolo - conductor

Лог создания рипа

Exact Audio Copy V0.99 prebeta 4 from 23. January 2008
EAC extraction logfile from 14. February 2014, 18:32
Ensemble Vocale di Napoli, Antonio Spagnolo / Alessandro Scarlatti - Missa Pro Defunctis
Used drive : SONY DVD-ROM DDU1615 Adapter: 0 ID: 0
Read mode : Secure
Utilize accurate stream : Yes
Defeat audio cache : Yes
Make use of C2 pointers : No
Read offset correction : 6
Overread into Lead-In and Lead-Out : No
Fill up missing offset samples with silence : Yes
Delete leading and trailing silent blocks : No
Null samples used in CRC calculations : Yes
Used interface : Native Win32 interface for Win NT & 2000
Used output format : User Defined Encoder
Selected bitrate : 1024 kBit/s
Quality : High
Add ID3 tag : No
Command line compressor : C:\Program Files\REACT\REACT.exe
Additional command line options : REACT %o %s %d "%a" "%g" "%t" "%n" "%x" "%y" "%m" "%e" "%f" "%b" %r
TOC of the extracted CD
Track | Start | Length | Start sector | End sector
---------------------------------------------------------
1 | 0:00.33 | 5:05.50 | 33 | 22957
2 | 5:06.08 | 1:50.37 | 22958 | 31244
3 | 6:56.45 | 2:43.63 | 31245 | 43532
4 | 9:40.33 | 6:24.65 | 43533 | 72397
5 | 16:05.23 | 3:17.02 | 72398 | 87174
6 | 19:22.25 | 2:57.13 | 87175 | 100462
7 | 22:19.38 | 3:50.67 | 100463 | 117779
8 | 26:10.30 | 3:06.08 | 117780 | 131737
9 | 29:16.38 | 3:24.70 | 131738 | 147107
10 | 32:41.33 | 3:08.05 | 147108 | 161212
11 | 35:49.38 | 4:02.72 | 161213 | 179434
12 | 39:52.35 | 2:50.70 | 179435 | 192254
13 | 42:43.30 | 4:15.23 | 192255 | 211402
14 | 46:58.53 | 7:31.42 | 211403 | 245269
Range status and errors
Selected range
Filename L:\Saoshya\fone 94F01 Alessandro Scarlatti - Missa Pro Defunctis (Ensemble Vocale di Napoli, Antonio Spagnolo)\CDImage\Alessandro Scarlatti - Missa Pro Defunctis - Ensemble Vocale di Napoli.wav
Peak level 94.3 %
Range quality 100.0 %
Test CRC F13FF77A
Copy CRC F13FF77A
Copy OK
No errors occurred
AccurateRip summary
Track 1 not present in database
Track 2 not present in database
Track 3 not present in database
Track 4 not present in database
Track 5 not present in database
Track 6 not present in database
Track 7 not present in database
Track 8 not present in database
Track 9 not present in database
Track 10 not present in database
Track 11 not present in database
Track 12 not present in database
Track 13 not present in database
Track 14 not present in database
None of the tracks are present in the AccurateRip database
End of status report
[teatrix.ru].t19201.torrent 
Торрент: Зарегистрирован [ 2016-03-18 12:53 ] · 82DA5729454150AA4955F247EFD243DB3005C844

Скачать .torrent

Скачать

16 KB

Статус: проверено
Скачан: 0 раз
Размер: 362 MB
terms.php



Быстрый ответ

Имя:

      
Для отправки сообщений необходимо включить JavaScript
Показать сообщения:    

Текущее время: 04-Дек 06:56

Часовой пояс: UTC + 3


Вы можете начинать темы
Вы можете отвечать на сообщения
Вы не можете редактировать свои сообщения
Вы не можете удалять свои сообщения
Вы не можете голосовать в опросах
Вы не можете прикреплять файлы к сообщениям
Вы можете скачивать файлы