(Classical) Ян Баптиста Клечиньский – Струнные трио [2 CDs] / J.B. Kleczynski – Six String Trios, Op. 4 (Trio Alegrija: Maria Milkowska, Magdalena Sierpien-Wywrocka, Przemyslaw Wierzba) - 2013, FLAC (image+.cue) lossless


 

[Цитировать]

Ян Баптиста Клечиньский – Струнные трио [2 CDs] / J.B. Kleczyński – Six String Trios, Op. 4 (Trio Alegrija: Maria Miłkowska, Magdalena Sierpień-Wywrocka, Przemysław Wierzba)
Жанр: Classical
Страна-производитель диска: Польша
Год издания диска: 2013
Издатель (лейбл): Acte Préalable
Номер по каталогу: AP0264, AP0265
Дата записи: 22 — 24 августа 2012 г., Миколув.
Аудиокодек: FLAC
Тип рипа: image+.cue
Битрейт аудио: lossless
Продолжительность: 00:44:47 + 00:44:21
Источник: odeonmusic
Наличие сканов в содержимом раздачи: да
Треклист:
Ян Баптиста Клечиньский (1756 — 1828).
Шесть трио для скрипки, альта и виолончели, op. 4 (опубл. 1797).
Cd 1.
Трио № 1 C-dur.
01. I. Allegro moderato [07:05].
02. II. Andante moderato [01:57].
03. III. Rondo. Allegro [04:11].
Трио № 2 G-dur.
04. I. Allegro con brio [07:12].
05. II. Poco andante con [3] variazioni [05:38].
06. III. Rondo. Allegro [02:25].
Трио № 6 A-dur.
07. I. Allegro moderato [07:47].
08. II. Poco adagio [04:01].
09. III. Andante grazioso con [3] variazioni. — Coda. Allegretto [04:27].
Cd 2.
Трио № 3 D-dur.
01. I. Allegro maestoso [08:22].
02. II. Menuetto grazioso. — Trio. — Menuetto da capo [02:33].
03. III. Rondo. Allegro [02:19].
Трио № 4 Es-dur.
04. I. Allegro moderato [08:22].
05. II. Poco adagio [03:58].
06. III. Rondo. Allegro [04:00].
Трио № 5 B-dur.
07. I. Allegro [07:37].
08. II. Adagio non troppo [03:53].
09. III. Rondo. Allegretto [03:11].
Исполнители:
Trio Alegrija:
Maria Miłkowska (скрипка),
Magdalena Sierpień-Wywrocka (альт),
Przemysław Wierzba (виолончель).

Логи создания рипаCD 1.

Exact Audio Copy V1.0 beta 3 from 29. August 2011
EAC extraction logfile from 9. July 2013, 16:00
Trio Alegrija / Jan Baptysta Kleczyński - String Trios op.4 (Vol.1) - Trio Alegrija
Used drive : TSSTcorpCDDVDW SH-222BB Adapter: 2 ID: 1
Read mode : Secure
Utilize accurate stream : Yes
Defeat audio cache : Yes
Make use of C2 pointers : No
Read offset correction : 6
Overread into Lead-In and Lead-Out : No
Fill up missing offset samples with silence : Yes
Delete leading and trailing silent blocks : No
Null samples used in CRC calculations : Yes
Used interface : Native Win32 interface for Win NT & 2000
Used output format : User Defined Encoder
Selected bitrate : 1024 kBit/s
Quality : High
Add ID3 tag : No
Command line compressor : C:\Program Files\Exact Audio Copy\Flac\flac.exe
Additional command line options : -8 -V -T "TITLE=%title%" -T "ARTIST=%artist%" -T "ALBUMARTIST=%albumartist%" -T "ALBUM=%albumtitle%" -T "DATE=%year%" -T "TRACKNUMBER=%tracknr%" -T "TRACKTOTAL=%numtracks%" -T "GENRE=%genre%" -T "COMMENT=%comment%" -T "PERFORMER=%albuminterpret%" -T "COMPOSER=%composer%" %source% -o %dest%
TOC of the extracted CD
Track | Start | Length | Start sector | End sector
---------------------------------------------------------
1 | 0:00.00 | 7:05.69 | 0 | 31943
2 | 7:05.69 | 1:57.27 | 31944 | 40745
3 | 9:03.21 | 4:11.34 | 40746 | 59604
4 | 13:14.55 | 7:12.47 | 59605 | 92051
5 | 20:27.27 | 5:38.17 | 92052 | 117418
6 | 26:05.44 | 2:25.60 | 117419 | 128353
7 | 28:31.29 | 7:47.44 | 128354 | 163422
8 | 36:18.73 | 4:01.11 | 163423 | 181508
9 | 40:20.09 | 4:27.02 | 181509 | 201535
Range status and errors
Selected range
Filename G:\Ripped general\[8755] Jan Baptysta Kleczyński – String Trios op.4 (Vol.1) – Trio Alegrija\Jan Baptysta Kleczyński - String Trios op.4 (Vol.1) - Trio Alegrija.wav
Peak level 96.2 %
Extraction speed 6.6 X
Range quality 100.0 %
Test CRC 3103DBAF
Copy CRC 3103DBAF
Copy OK
No errors occurred
AccurateRip summary
Track 1 not present in database
Track 2 not present in database
Track 3 not present in database
Track 4 not present in database
Track 5 not present in database
Track 6 not present in database
Track 7 not present in database
Track 8 not present in database
Track 9 not present in database
None of the tracks are present in the AccurateRip database
End of status report

CD 2.

Exact Audio Copy V1.0 beta 3 from 29. August 2011
EAC extraction logfile from 9. July 2013, 15:44
Trio Alegrija / Jan Baptysta Kleczyński - String Trios op.4 (Vol.2) - Trio Alegrija
Used drive : TSSTcorpCDDVDW SH-222BB Adapter: 2 ID: 1
Read mode : Secure
Utilize accurate stream : Yes
Defeat audio cache : Yes
Make use of C2 pointers : No
Read offset correction : 6
Overread into Lead-In and Lead-Out : No
Fill up missing offset samples with silence : Yes
Delete leading and trailing silent blocks : No
Null samples used in CRC calculations : Yes
Used interface : Native Win32 interface for Win NT & 2000
Used output format : User Defined Encoder
Selected bitrate : 1024 kBit/s
Quality : High
Add ID3 tag : No
Command line compressor : C:\Program Files\Exact Audio Copy\Flac\flac.exe
Additional command line options : -8 -V -T "TITLE=%title%" -T "ARTIST=%artist%" -T "ALBUMARTIST=%albumartist%" -T "ALBUM=%albumtitle%" -T "DATE=%year%" -T "TRACKNUMBER=%tracknr%" -T "TRACKTOTAL=%numtracks%" -T "GENRE=%genre%" -T "COMMENT=%comment%" -T "PERFORMER=%albuminterpret%" -T "COMPOSER=%composer%" %source% -o %dest%
TOC of the extracted CD
Track | Start | Length | Start sector | End sector
---------------------------------------------------------
1 | 0:00.00 | 8:22.63 | 0 | 37712
2 | 8:22.63 | 2:33.37 | 37713 | 49224
3 | 10:56.25 | 2:19.11 | 49225 | 59660
4 | 13:15.36 | 8:22.70 | 59661 | 97380
5 | 21:38.31 | 3:58.15 | 97381 | 115245
6 | 25:36.46 | 4:00.57 | 115246 | 133302
7 | 29:37.28 | 7:37.68 | 133303 | 167645
8 | 37:15.21 | 3:53.67 | 167646 | 185187
9 | 41:09.13 | 3:11.71 | 185188 | 199583
Range status and errors
Selected range
Filename G:\Ripped general\[8754] Jan Baptysta Kleczyński – String Trios op.4 (Vol.2) – Trio Alegrija\Jan Baptysta Kleczyński - String Trios op.4 (Vol.2) - Trio Alegrija.wav
Peak level 96.1 %
Extraction speed 6.6 X
Range quality 100.0 %
Test CRC 8D3DC671
Copy CRC 8D3DC671
Copy OK
No errors occurred
AccurateRip summary
Track 1 not present in database
Track 2 not present in database
Track 3 not present in database
Track 4 not present in database
Track 5 not present in database
Track 6 not present in database
Track 7 not present in database
Track 8 not present in database
Track 9 not present in database
None of the tracks are present in the AccurateRip database
End of status report

Содержание индексных карт (.CUE)CD 1.

REM GENRE Classical
REM DISCID 750A7F09
REM COMMENT "ExactAudioCopy v1.0b3"
PERFORMER "Trio Alegrija"
TITLE "Jan Baptysta Kleczynski – String Trios, Op. 4 (Vol. 1) – Trio Alegrija"
FILE "Jan Baptysta Kleczynski – String Trios, Op. 4 (Vol. 1) – Trio Alegrija.flac" WAVE
TRACK 01 AUDIO
TITLE "Six String Trios, Op. 4 - No. 1 in C major - I. Allegro moderato"
PERFORMER "Trio Alegrija"
INDEX 01 00:00:00
TRACK 02 AUDIO
TITLE "Six String Trios, Op. 4 - No. 1 in C major - II. Andante moderato"
PERFORMER "Trio Alegrija"
INDEX 01 07:05:69
TRACK 03 AUDIO
TITLE "Six String Trios, Op. 4 - No. 1 in C major - III. Rondo. Allegro"
PERFORMER "Trio Alegrija"
INDEX 01 09:03:21
TRACK 04 AUDIO
TITLE "Six String Trios, Op. 4 - No. 2 in G major - I. Allegro con brio"
PERFORMER "Trio Alegrija"
INDEX 00 13:09:55
INDEX 01 13:14:55
TRACK 05 AUDIO
TITLE "Six String Trios, Op. 4 - No. 2 in G major - II. Poco andante con variazioni"
PERFORMER "Trio Alegrija"
INDEX 01 20:27:27
TRACK 06 AUDIO
TITLE "Six String Trios, Op. 4 - No. 2 in G major - III. Rondo. Allegro"
PERFORMER "Trio Alegrija"
INDEX 01 26:05:44
TRACK 07 AUDIO
TITLE "Six String Trios, Op. 4 - No. 6 in A major - I. Allegro moderato"
PERFORMER "Trio Alegrija"
INDEX 00 28:26:30
INDEX 01 28:31:29
TRACK 08 AUDIO
TITLE "Six String Trios, Op. 4 - No. 6 in A major - II. Poco adagio"
PERFORMER "Trio Alegrija"
INDEX 01 36:18:73
TRACK 09 AUDIO
TITLE "Six String Trios, Op. 4 - No. 6 in A major - III. Andante grazioso con variazioni"
PERFORMER "Trio Alegrija"
INDEX 01 40:20:09

CD 2.

REM GENRE Classical
REM DISCID 7E0A6509
REM COMMENT "ExactAudioCopy v1.0b3"
PERFORMER "Trio Alegrija"
TITLE "Jan Baptysta Kleczynski – String Trios, Op. 4 (Vol. 2) – Trio Alegrija"
FILE "Jan Baptysta Kleczynski – String Trios, Op. 4 (Vol. 2) – Trio Alegrija.flac" WAVE
TRACK 01 AUDIO
TITLE "Six String Trios, Op. 4 - No. 3 in D major - I. Allegro maestoso"
PERFORMER "Trio Alegrija"
INDEX 01 00:00:00
TRACK 02 AUDIO
TITLE "Six String Trios, Op. 4 - No. 3 in D major - II. Menuetto grazioso"
PERFORMER "Trio Alegrija"
INDEX 01 08:22:63
TRACK 03 AUDIO
TITLE "Six String Trios, Op. 4 - No. 3 in D major - III. Rondo. Allegro"
PERFORMER "Trio Alegrija"
INDEX 01 10:56:25
TRACK 04 AUDIO
TITLE "Six String Trios, Op. 4 - No. 4 in E flat major - I. Allegro moderato"
PERFORMER "Trio Alegrija"
INDEX 00 13:10:36
INDEX 01 13:15:36
TRACK 05 AUDIO
TITLE "Six String Trios, Op. 4 - No. 4 in E flat major - II. Poco adagio"
PERFORMER "Trio Alegrija"
INDEX 01 21:38:31
TRACK 06 AUDIO
TITLE "Six String Trios, Op. 4 - No. 4 in E flat major - III. Rondo. Allegro"
PERFORMER "Trio Alegrija"
INDEX 01 25:36:46
TRACK 07 AUDIO
TITLE "Six String Trios, Op. 4 - No. 5 in B flat major - I. Allegro"
PERFORMER "Trio Alegrija"
INDEX 00 29:32:28
INDEX 01 29:37:28
TRACK 08 AUDIO
TITLE "Six String Trios, Op. 4 - No. 5 in B flat major - II. Adagio non troppo"
PERFORMER "Trio Alegrija"
INDEX 01 37:15:21
TRACK 09 AUDIO
TITLE "Six String Trios, Op. 4 - No. 5 in B flat major - III. Rondo. Allegretto"
PERFORMER "Trio Alegrija"
INDEX 01 41:09:13

Варианты индексных карт (.CUE) с выставленными зазорамиCD 1.

REM GENRE Classical
REM DISCID 750A7F09
REM COMMENT "ExactAudioCopy v1.0b3"
PERFORMER "Trio Alegrija"
TITLE "Jan Baptysta Kleczynski – String Trios, Op. 4 (Vol. 1) – Trio Alegrija"
FILE "Jan Baptysta Kleczynski – String Trios, Op. 4 (Vol. 1) – Trio Alegrija.flac" WAVE
TRACK 01 AUDIO
TITLE "Six String Trios, Op. 4 - No. 1 in C major - I. Allegro moderato"
PERFORMER "Trio Alegrija"
INDEX 01 00:00:00
TRACK 02 AUDIO
TITLE "Six String Trios, Op. 4 - No. 1 in C major - II. Andante moderato"
PERFORMER "Trio Alegrija"
INDEX 00 07:04:21
INDEX 01 07:05:69
TRACK 03 AUDIO
TITLE "Six String Trios, Op. 4 - No. 1 in C major - III. Rondo. Allegro"
PERFORMER "Trio Alegrija"
INDEX 01 09:03:21
TRACK 04 AUDIO
TITLE "Six String Trios, Op. 4 - No. 2 in G major - I. Allegro con brio"
PERFORMER "Trio Alegrija"
INDEX 00 13:06:07
INDEX 01 13:14:55
TRACK 05 AUDIO
TITLE "Six String Trios, Op. 4 - No. 2 in G major - II. Poco andante con variazioni"
PERFORMER "Trio Alegrija"
INDEX 00 20:26:14
INDEX 01 20:27:62
TRACK 06 AUDIO
TITLE "Six String Trios, Op. 4 - No. 2 in G major - III. Rondo. Allegro"
PERFORMER "Trio Alegrija"
INDEX 01 26:05:53
TRACK 07 AUDIO
TITLE "Six String Trios, Op. 4 - No. 6 in A major - I. Allegro moderato"
PERFORMER "Trio Alegrija"
INDEX 00 28:22:63
INDEX 01 28:31:29
TRACK 08 AUDIO
TITLE "Six String Trios, Op. 4 - No. 6 in A major - II. Poco adagio"
PERFORMER "Trio Alegrija"
INDEX 00 36:17:23
INDEX 01 36:18:73
TRACK 09 AUDIO
TITLE "Six String Trios, Op. 4 - No. 6 in A major - III. Andante grazioso con variazioni"
PERFORMER "Trio Alegrija"
INDEX 00 40:18:52
INDEX 01 40:20:09
INDEX 02 44:45:31

CD 2.

REM GENRE Classical
REM DISCID 7E0A6509
REM COMMENT "ExactAudioCopy v1.0b3"
PERFORMER "Trio Alegrija"
TITLE "Jan Baptysta Kleczynski – String Trios, Op. 4 (Vol. 2) – Trio Alegrija"
FILE "Jan Baptysta Kleczynski – String Trios, Op. 4 (Vol. 2) – Trio Alegrija.flac" WAVE
TRACK 01 AUDIO
TITLE "Six String Trios, Op. 4 - No. 3 in D major - I. Allegro maestoso"
PERFORMER "Trio Alegrija"
INDEX 01 00:00:00
TRACK 02 AUDIO
TITLE "Six String Trios, Op. 4 - No. 3 in D major - II. Menuetto grazioso"
PERFORMER "Trio Alegrija"
INDEX 00 08:21:12
INDEX 01 08:23:30
TRACK 03 AUDIO
TITLE "Six String Trios, Op. 4 - No. 3 in D major - III. Rondo. Allegro"
PERFORMER "Trio Alegrija"
INDEX 01 10:56:71
TRACK 04 AUDIO
TITLE "Six String Trios, Op. 4 - No. 4 in E flat major - I. Allegro moderato"
PERFORMER "Trio Alegrija"
INDEX 00 13:07:22
INDEX 01 13:16:04
TRACK 05 AUDIO
TITLE "Six String Trios, Op. 4 - No. 4 in E flat major - II. Poco adagio"
PERFORMER "Trio Alegrija"
INDEX 00 21:36:39
INDEX 01 21:39:09
TRACK 06 AUDIO
TITLE "Six String Trios, Op. 4 - No. 4 in E flat major - III. Rondo. Allegro"
PERFORMER "Trio Alegrija"
INDEX 00 25:36:25
INDEX 01 25:37:32
TRACK 07 AUDIO
TITLE "Six String Trios, Op. 4 - No. 5 in B flat major - I. Allegro"
PERFORMER "Trio Alegrija"
INDEX 00 29:29:48
INDEX 01 29:38:27
TRACK 08 AUDIO
TITLE "Six String Trios, Op. 4 - No. 5 in B flat major - II. Adagio non troppo"
PERFORMER "Trio Alegrija"
INDEX 00 37:13:51
INDEX 01 37:15:21
TRACK 09 AUDIO
TITLE "Six String Trios, Op. 4 - No. 5 in B flat major - III. Rondo. Allegretto"
PERFORMER "Trio Alegrija"
INDEX 01 41:09:13
INDEX 02 44:16:62



Показать сообщения:    

Текущее время: 05-Дек 01:25

Часовой пояс: UTC + 3


Вы не можете начинать темы
Вы не можете отвечать на сообщения
Вы не можете редактировать свои сообщения
Вы не можете удалять свои сообщения
Вы не можете голосовать в опросах
Вы не можете прикреплять файлы к сообщениям
Вы не можете скачивать файлы