Бродвей (Петр Шерешевский) [2011 г., комедия в стиле джаз, WEB-DLRip] Новокузнецкий драматический театр


 

[Цитировать]

Бродвей Название театра: Новокузнецкий драматический театр.
Год выпуска: 2011.
Жанр: комедия в стиле джаз.
Продолжительность: 02:31:57.
Режиссер: Петр Шерешевский.
Действующие лица и исполнители:
Девид Шейн - Андрей Грачев,
Чич – Артур Левченко,
Хелен Синклер - Людмила Адаменко,
Оливия Нил - Наталья Каллерт,
Джулиан Маркс - Шмаков Андрей,
Уорнер Персол - Андрей Ковзель,
Вайлет - Полина Зуева,
Сидни Луис - Вячеслав Туев,
Флендер - Сергей Стасюк,
Элен - Мария Захарова,
Ник Валенти - Игорь Марганец,
Иден Бренд - Татьяна Качалова,
Лорна - Вера Кораблина,
Антонио - Евгений Лапшин,
Тулио - Александр Коробов,
Венера - Ирина Шантарь,
Рита - Екатерина Санникова.
О спектакле:
По мотивам фильма Вуди Аллена «Пули над Бродвеем»
Спектакль представит скрытую жизнь театра и возможность поразмышлять о цене успеха и цене жизни. Творчество — во имя жизни, или жизнь — на алтарь творчеству? Эти вопросы воплощены в судьбах нескольких персонажей: актрис, начинающего драматурга и талантливого от природы гангстера. Увлекательность в развитии сюжета сочетается с глубиной, низкое — с высоким, смешное — с трагическим.

Дополнительная информация:
Страна: Россия .
Художник-постановщик: Анвар Гумаров.
Художник по костюмам: Ника Великжанинова.

О спектакле.
Релиз
Рип sharky.

Качество видео:...WEB-DLRip
Формат:.................AVI
Видео:..704x528 (1.33:1), 25 fps, XviD build 47 ~1851 kbps avg, 0.20 bit/pixel
Аудио:..48 kHz, AC3 Dolby Digital, 2/0 (L,R) ch, ~192 kbps

Отчет MI

Общее
Полное имя : Broadway_Novokuzneckij.DT.2011.XviD.WEB-DLRip.fenixclub.avi
Format : AVI
Format/Info : Audio Video Interleave
Format profile : OpenDML
File size : 2.18 GiB
Duration : 2h 31mn
Overall bit rate : 2 051 Kbps
Writing application : VirtualDubMod 1.5.10.2 (build 2540/release)
Writing library : VirtualDubMod build 2540/release
Video
ID : 0
Format : MPEG-4 Visual
Format profile : Advanced Simple@L5
Format settings, BVOP : 1
Format settings, QPel : No
Format settings, GMC : No warppoints
Format settings, Matrix : Default (H.263)
Codec ID : XVID
Codec ID/Hint : XviD
Duration : 2h 31mn
Bit rate : 1 847 Kbps
Width : 704 pixels
Height : 528 pixels
Display aspect ratio : 4:3
Frame rate : 25.000 fps
Color space : YUV
Chroma subsampling : 4:2:0
Bit depth : 8 bits
Scan type : Progressive
Compression mode : Lossy
Bits/(Pixel*Frame) : 0.199
Stream size : 1.96 GiB (90%)
Writing library : XviD 1.2.0.dev47 (UTC 2006-11-01)
Audio
ID : 1
Format : AC-3
Format/Info : Audio Coding 3
Mode extension : CM (complete main)
Format settings, Endianness : Big
Codec ID : 2000
Duration : 2h 31mn
Bit rate mode : Constant
Bit rate : 192 Kbps
Channel(s) : 2 channels
Channel positions : Front: L R
Sampling rate : 48.0 KHz
Bit depth : 16 bits
Compression mode : Lossy
Stream size : 209 MiB (9%)
Alignment : Split accross interleaves
Interleave, duration : 40 ms (1.00 video frame)
Interleave, preload duration : 500 ms.

Скриншоты


Альтернативный хост





Показать сообщения:    

Текущее время: 09-Дек 06:59

Часовой пояс: UTC + 3


Вы не можете начинать темы
Вы не можете отвечать на сообщения
Вы не можете редактировать свои сообщения
Вы не можете удалять свои сообщения
Вы не можете голосовать в опросах
Вы не можете прикреплять файлы к сообщениям
Вы не можете скачивать файлы