Слишком женатый таксист (Юрий Ядровский) [2007 г., фарс-мажор, WEB-DLRip] Новокузнецкий драматический театр


 

[Цитировать]

Слишком женатый таксист Название театра: Новокузнецкий драматический театр.
Год выпуска: 2007.
Жанр: фарс-мажор.
Продолжительность: 01:39:41.
Режиссер: Юрий Ядровский.
Действующие лица и исполнители:
Джон Смит - Виталий Махов,
Стэнли Поуни - заслуженный артист России Эдуард Тимошенко,
Мэри Смит - Елена Половинкина,
Барбара Смит - Татьяна Королева,
Инспектор Траутон - Анатолий Кирков,
Инспектор Портерхаус - Владимир Громов,
Бобби Франклин - Александр Хряков,
Репортер - Александр Шубин.
О спектакле:
Потрясающая история из личной жизни простого лондонского таксиста по имени Джон Смит с уморительной и захватывающей интригой!
Нашим мужчинам такое может присниться только в страшном сне… Представьте, что вы одновременно женаты на двух очаровательных молодых леди, нежно вас любящих, и - самое главное! - страстно вами любимых.
И вдруг, из-за какой-то нелепой ситуации, вашу сокровенную брачную тайну расследует полиция, и вам грозит скандальное разоблачение! Истинный форс-мажор!
Но наш герой будет биться до конца, ради того, чтобы спасти свою "любовь в квадрате"!
Доверившись только соседу и другу Стэнли Поуни, он с его помощью устроит такую кутерьму и прибегнет к таким невероятным ухищрениям, что не только у "полицейских", но и у вас, дорогие зрители, "голова пойдет кругом".

Дополнительная информация:
Страна: Россия .
Автор: Рэй Куни.
Сценография: Олег Головко
Композитор: Виктор Стрибук.
Премьера спектакля: 22 октября 2004 года.

О спектакле.
Релиз
Рип sharky.

Качество видео:...WEB-DLRip
Формат:.................AVI
Видео:..704x528 (1.33:1), 25 fps, XviD build 47 ~1879 kbps avg, 0.20 bit/pixel
Аудио:..48 kHz, AC3 Dolby Digital, 2/0 (L,R) ch, ~192 kbps

Отчет MI

Общее
Полное имя : Slishkom.zhenatyj.taksist_Novokuzneckij.DT.2007.XviD.WEB-DLRip.fenixclub.avi
Format : AVI
Format/Info : Audio Video Interleave
File size : 1.45 GiB
Duration : 1h 39mn
Overall bit rate : 2 081 Kbps
Writing application : VirtualDubMod 1.5.10.2 (build 2540/release)
Writing library : VirtualDubMod build 2540/release
Video
ID : 0
Format : MPEG-4 Visual
Format profile : Advanced Simple@L5
Format settings, BVOP : 1
Format settings, QPel : No
Format settings, GMC : No warppoints
Format settings, Matrix : Default (H.263)
Codec ID : XVID
Codec ID/Hint : XviD
Duration : 1h 39mn
Bit rate : 1 880 Kbps
Width : 704 pixels
Height : 528 pixels
Display aspect ratio : 4:3
Frame rate : 25.000 fps
Color space : YUV
Chroma subsampling : 4:2:0
Bit depth : 8 bits
Scan type : Progressive
Compression mode : Lossy
Bits/(Pixel*Frame) : 0.202
Stream size : 1.31 GiB (90%)
Writing library : XviD 1.2.0.dev47 (UTC 2006-11-01)
Audio
ID : 1
Format : AC-3
Format/Info : Audio Coding 3
Mode extension : CM (complete main)
Format settings, Endianness : Big
Codec ID : 2000
Duration : 1h 39mn
Bit rate mode : Constant
Bit rate : 192 Kbps
Channel(s) : 2 channels
Channel positions : Front: L R
Sampling rate : 48.0 KHz
Bit depth : 16 bits
Compression mode : Lossy
Stream size : 137 MiB (9%)
Alignment : Split accross interleaves
Interleave, duration : 40 ms (1.00 video frame)
Interleave, preload duration : 500 ms.

Скриншоты


Альтернативный хост





Показать сообщения:    

Текущее время: 10-Дек 11:51

Часовой пояс: UTC + 3


Вы не можете начинать темы
Вы не можете отвечать на сообщения
Вы не можете редактировать свои сообщения
Вы не можете удалять свои сообщения
Вы не можете голосовать в опросах
Вы не можете прикреплять файлы к сообщениям
Вы не можете скачивать файлы