(Classical) C.P.E. Bach - Magnificat; Motet "Heilig ist Gott" - Elizabeth Watts, Wiebke Lehmkuhl, Lothar Odinius, Marcus Eiche; RIAS Kammerchor, Akademie fur Alte Musik Berlin, Hans-Christoph Rademann - 2014, FLAC (image+.cue) lossless


Статистика раздачи [Обновить пиров]
Размер:  264 MB   |    Зарегистрирован:  8 месяцев 23 дня   |    Скачан:  0 раз

Полного источника не было: Никогда

Личеров:  12  [  0 KB/s  ]   Подробная статистика пиров
 
   
 
 
 

[Цитировать]

C.P.E. Bach - Magnificat; Motet "Heilig ist Gott" - Elizabeth Watts, Wiebke Lehmkuhl, Lothar Odinius, Marcus Eiche; RIAS Kammerchor, Akademie für Alte Musik Berlin, Hans-Christoph Rademann
Жанр: Classical
Страна-производитель диска: France
Год издания диска: 2014
Издатель (лейбл): Harmonia Mundi
Номер по каталогу: HMC 902167
Дата записи: 2013
Аудиокодек: FLAC
Тип рипа: image+.cue
Битрейт аудио: lossless
Продолжительность: 56:05
Источник: собственный рип
Наличие сканов в содержимом раздачи: да
Треклист:
Carl Philipp Emanuel Bach (1714-1788)
[1]-[9] Magnificat Wq 215
[10]-[11] Heilig ist Gott Wq 217
[12]-[14] Sinfonie D major Wq 183
Исполнители:
Elizabeth Watts soprano
Wiebke Lehmkuhl alto
Lothar Odinius tenor
Marcus Eiche bass
RIAS Kammerchor
Akademie für Alte Musik Berlin
Hans-Christoph Rademann

Лог создания рипа

Exact Audio Copy V1.0 beta 3 from 29. August 2011
EAC extraction logfile from 25. September 2014, 20:16
RIAS Kammerchor, Akademie fur Alte Musik Berlin, Hans-Christoph Rademann / C.P.E. Bach - Magnificat
Used drive : HL-DT-STDVDRAM GU70N Adapter: 0 ID: 0
Read mode : Secure
Utilize accurate stream : Yes
Defeat audio cache : Yes
Make use of C2 pointers : No
Read offset correction : 48
Overread into Lead-In and Lead-Out : No
Fill up missing offset samples with silence : Yes
Delete leading and trailing silent blocks : No
Null samples used in CRC calculations : Yes
Used interface : Native Win32 interface for Win NT & 2000
Used output format : User Defined Encoder
Selected bitrate : 128 kBit/s
Quality : High
Add ID3 tag : No
Command line compressor : C:\Program Files (x86)\Exact Audio Copy\Flac\flac.exe
Additional command line options : -V -8 -T "Date=%year%" -T "Genre=%genre%" %source%
TOC of the extracted CD
Track | Start | Length | Start sector | End sector
---------------------------------------------------------
1 | 0:00.00 | 2:54.39 | 0 | 13088
2 | 2:54.39 | 5:32.21 | 13089 | 38009
3 | 8:26.60 | 3:59.60 | 38010 | 55994
4 | 12:26.45 | 3:59.36 | 55995 | 73955
5 | 16:26.06 | 3:37.33 | 73956 | 90263
6 | 20:03.39 | 5:52.73 | 90264 | 116736
7 | 25:56.37 | 4:43.02 | 116737 | 137963
8 | 30:39.39 | 1:49.63 | 137964 | 146201
9 | 32:29.27 | 5:27.23 | 146202 | 170749
10 | 37:56.50 | 1:44.52 | 170750 | 178601
11 | 39:41.27 | 6:08.24 | 178602 | 206225
12 | 45:49.51 | 5:47.52 | 206226 | 232302
13 | 51:37.28 | 1:34.07 | 232303 | 239359
14 | 53:11.35 | 2:51.65 | 239360 | 252249
Range status and errors
Selected range
Filename C:\temp\C.P.E. Bach - Magnificat\C.P.E. Bach - Magnificat.wav
Peak level 93.8 %
Extraction speed 5.1 X
Range quality 100.0 %
Test CRC 05631137
Copy CRC 05631137
Copy OK
No errors occurred
AccurateRip summary
Track 1 accurately ripped (confidence 10) [6BE79BF5] (AR v2)
Track 2 accurately ripped (confidence 10) [771DF773] (AR v2)
Track 3 accurately ripped (confidence 10) [DF694702] (AR v2)
Track 4 accurately ripped (confidence 10) [43D04715] (AR v2)
Track 5 accurately ripped (confidence 10) [3E2A4335] (AR v2)
Track 6 accurately ripped (confidence 10) [29DD048B] (AR v2)
Track 7 accurately ripped (confidence 10) [242037C6] (AR v2)
Track 8 accurately ripped (confidence 10) [9AA4719C] (AR v2)
Track 9 accurately ripped (confidence 10) [7EF7B9F0] (AR v2)
Track 10 accurately ripped (confidence 10) [3B7B8D1E] (AR v2)
Track 11 accurately ripped (confidence 10) [E3425F1C] (AR v2)
Track 12 accurately ripped (confidence 10) [4798814F] (AR v2)
Track 13 accurately ripped (confidence 10) [ABF4575C] (AR v2)
Track 14 accurately ripped (confidence 10) [D4CFFB0A] (AR v2)
All tracks accurately ripped
End of status report
==== Log checksum 1C57C65AE99732F6D5EFC4208C7FE872199899365CCD8F588AE86E51D5BF2FA1 ====
[teatrix.ru].t19206.torrent 
Торрент: Зарегистрирован [ 2016-03-18 12:47 ] · 1DA956D15C538F9B7328A4C1C76377E3624104C5

Скачать .torrent

Скачать

23 KB

Статус: проверено
Скачан: 0 раз
Размер: 264 MB
terms.php



Быстрый ответ

Имя:

      
Для отправки сообщений необходимо включить JavaScript
Показать сообщения:    

Текущее время: 11-Дек 07:15

Часовой пояс: UTC + 3


Вы можете начинать темы
Вы можете отвечать на сообщения
Вы не можете редактировать свои сообщения
Вы не можете удалять свои сообщения
Вы не можете голосовать в опросах
Вы не можете прикреплять файлы к сообщениям
Вы можете скачивать файлы