Моцарт: "Дон Жуан" / Mozart: Don Giovanni ( Ildebrando D’Arcangelo (Don Giovanni), Andrea Concetti (Leporello), Enrico Giuseppe Iori (Il Commendatore), Myrtò Papatanasiu (Donna Anna)) [2011, опера, Blu-ray]


 

[Цитировать]

Моцарт: "Дон Жуан" / Mozart: Don Giovanni
Год выпуска: 2011
Страна-производитель: США
Жанр: опера
Продолжительность: 02:54:00
Язык: Italian
Перевод: отсуствует
Субтитры: English Chinese French German Italian Korean Spanish
Режиссер: Pier Luigi Pizzi
Исполнители: Ildebrando D’Arcangelo (Don Giovanni), Andrea Concetti (Leporello), Enrico Giuseppe Iori (Il Commendatore), Myrtò Papatanasiu (Donna Anna), Marlin Miller (Don Ottavio), Carmela Remigio (Donna Elvira), Manuela Bisceglie (Zerlina), William Corrò (Masetto), Coro Lirico Marchigiano Vinzenzo Bellini, Fondazione Orchestra Regionale delle Marche
Описание: When it comes to Mozartian perfection on the opera stage, one needn’t always seek it in Milan, Vienna, Salzburg or New York! At the Sferisterio Opera Festival in the centralltalian city of Macerata, a rapt audience was treated to a production of Don Giovanni ..that will enter the annals of opera” (ForumOpera.com). This magnificent reading of Mozart’s timeless masterpiece sweeps the viewer into a libertine, 1B’h-century society dominated by sensuality and erotic impulses. They are acted out on the stage’s main prop, a large, unmade bed, not only by Don Giovanni, but also by justabout everyone eise in the .. nearly faultless cast” (ForumOpera.com). ln his role debut as the title hero, lldebrando D’Arcangelo is .. incandescent” (Gazzetta di Parma) and “doesn’t do Don Giovanni; he is the Don. Unsurpassable” (24 Ore).
Recorded at the Sferisterio Opera Festival, Teatro Lauro Rossi, Macerata, 2011.
Качество видео: Blu-ray
Формат/Контейнер: BDMV
Видео кодек: MPEG4
Аудио кодек: DTS
Видео поток: MPEG-4 AVC Video / 21991 kbps / 1080i / 29,970 fps / 16:9 / High Profile 4.1
Аудио поток: Italian DTS-HD MA 5.0 (48 kHz / 1509 kbps / 24-bit)
Аудио поток 2: Italian LPCM 2.0 (48 kHz / 2304 kbps / 24-bit)

Скриншоты

BDInfo

Disc Title: MOZART DON GIOVANNI
Disc Size: 43 446 157 229 bytes
Protection: AACS
BD-Java: No
BDInfo: 0.5.8
Notes:
BDINFO HOME:
Cinema Squid
http://www.cinemasquid.com/blu-ray/tools/bdinfo
INCLUDES FORUMS REPORT FOR:
AVS Forum Blu-ray Audio and Video Specifications Thread
http://www.avsforum.com/avs-vb/showthread.php?t=1155731
********************
PLAYLIST: 00004.MPLS
********************
<--- BEGIN FORUMS PASTE --->
Total   Video
Title                                                           Codec   Length  Movie Size      Disc Size       Bitrate Bitrate Main Audio Track                          Secondary Audio Track
-----                                                           ------  ------- --------------  --------------  ------- ------- ------------------                        ---------------------
00004.MPLS                                                      AVC     0:02:32 350 742 528     43 446 157 229  18,37   13,99   LPCM 2.0 1536Kbps (48kHz/16-bit)          LPCM 2.0 1536Kbps (48kHz/16-bit)
DISC INFO:
[br]
Disc Title:     MOZART DON GIOVANNI
Disc Size:      43 446 157 229 bytes
Protection:     AACS
BD-Java:        No
BDInfo:         0.5.8
[br]
PLAYLIST REPORT:
[br]
Name:                   00004.MPLS
Length:                 0:02:32.752 (h:m:s.ms)
Size:                   350 742 528 bytes
Total Bitrate:          18,37 Mbps
[br]
VIDEO:
[br]
Codec                   Bitrate             Description
-----                   -------             -----------
MPEG-4 AVC Video        13993 kbps          1080i / 29,970 fps / 16:9 / High Profile 4.1
[br]
AUDIO:
[br]
Codec                           Language        Bitrate         Description
-----                           --------        -------         -----------
LPCM Audio                      Undetermined    1536 kbps       2.0 / 48 kHz / 1536 kbps / 16-bit
LPCM Audio                      Undetermined    1536 kbps       2.0 / 48 kHz / 1536 kbps / 16-bit
[br]
FILES:
[br]
Name            Time In         Length          Size            Total Bitrate
----            -------         ------          ----            -------------
00008.M2TS      0:00:00.000     0:02:32.752     350 742 528     18 369
[br]
CHAPTERS:
[br]
Number          Time In         Length          Avg Video Rate  Max 1-Sec Rate  Max 1-Sec Time  Max 5-Sec Rate  Max 5-Sec Time  Max 10Sec Rate  Max 10Sec Time  Avg Frame Size  Max Frame Size  Max Frame Time
------          -------         ------          --------------  --------------  --------------  --------------  --------------  --------------  --------------  --------------  --------------  --------------
1               0:00:00.000     0:02:31.551     14 082 kbps     30 757 kbps     00:00:29.329    22 432 kbps     00:00:17.684    19 267 kbps     00:00:58.758    58 722 bytes    602 109 bytes   00:01:12.672
2               0:02:31.551     0:00:01.201     2 738 kbps      2 937 kbps      00:02:31.718    0 kbps          00:00:00.000    0 kbps          00:00:00.000    11 748 bytes    37 699 bytes    00:02:32.352
[br]
STREAM DIAGNOSTICS:
[br]
File            PID             Type            Codec           Language                Seconds                 Bitrate                 Bytes           Packets
----            ---             ----            -----           --------                --------------          --------------          -------------   -----
00008.M2TS      4113 (0x1011)   0x1B            AVC                                     152,653                 14 002                  267 183 454     1 454 731
00008.M2TS      4352 (0x1100)   0x80            LPCM            und (Undetermined)      152,653                 1 545                   29 475 264      183 456
00008.M2TS      4353 (0x1101)   0x80            LPCM            und (Undetermined)      152,653                 1 545                   29 475 264      183 456
<---- END FORUMS PASTE ---->
QUICK SUMMARY:
Disc Title: MOZART DON GIOVANNI
Disc Size: 43 446 157 229 bytes
Protection: AACS
BD-Java: No
Playlist: 00004.MPLS
Size: 350 742 528 bytes
Length: 0:02:32.752
Total Bitrate: 18,37 Mbps
Video: MPEG-4 AVC Video / 13993 kbps / 1080i / 29,970 fps / 16:9 / High Profile 4.1
Audio: Undetermined / LPCM Audio / 2.0 / 48 kHz / 1536 kbps / 16-bit
Audio: Undetermined / LPCM Audio / 2.0 / 48 kHz / 1536 kbps / 16-bit
********************
PLAYLIST: 00002.MPLS
********************
<--- BEGIN FORUMS PASTE --->
Total   Video
Title                                                           Codec   Length  Movie Size      Disc Size       Bitrate Bitrate Main Audio Track                          Secondary Audio Track
-----                                                           ------  ------- --------------  --------------  ------- ------- ------------------                        ---------------------
00002.MPLS                                                      AVC     0:01:38 329 877 504     43 446 157 229  26,71   21,99   LPCM 2.0 1536Kbps (48kHz/16-bit)          LPCM 2.0 1536Kbps (48kHz/16-bit)
DISC INFO:
[br]
Disc Title:     MOZART DON GIOVANNI
Disc Size:      43 446 157 229 bytes
Protection:     AACS
BD-Java:        No
BDInfo:         0.5.8
[br]
PLAYLIST REPORT:
[br]
Name:                   00002.MPLS
Length:                 0:01:38.798 (h:m:s.ms)
Size:                   329 877 504 bytes
Total Bitrate:          26,71 Mbps
[br]
VIDEO:
[br]
Codec                   Bitrate             Description
-----                   -------             -----------
MPEG-4 AVC Video        21991 kbps          1080i / 29,970 fps / 16:9 / High Profile 4.1
[br]
AUDIO:
[br]
Codec                           Language        Bitrate         Description
-----                           --------        -------         -----------
LPCM Audio                      Undetermined    1536 kbps       2.0 / 48 kHz / 1536 kbps / 16-bit
LPCM Audio                      Undetermined    1536 kbps       2.0 / 48 kHz / 1536 kbps / 16-bit
[br]
FILES:
[br]
Name            Time In         Length          Size            Total Bitrate
----            -------         ------          ----            -------------
00012.M2TS      0:00:00.000     0:01:38.798     329 877 504     26 711
[br]
CHAPTERS:
[br]
Number          Time In         Length          Avg Video Rate  Max 1-Sec Rate  Max 1-Sec Time  Max 5-Sec Rate  Max 5-Sec Time  Max 10Sec Rate  Max 10Sec Time  Avg Frame Size  Max Frame Size  Max Frame Time
------          -------         ------          --------------  --------------  --------------  --------------  --------------  --------------  --------------  --------------  --------------  --------------
1               0:00:00.000     0:01:37.230     22 279 kbps     36 765 kbps     00:01:27.654    33 503 kbps     00:00:32.899    30 124 kbps     00:00:51.618    92 890 bytes    318 845 bytes   00:01:01.394
2               0:01:37.230     0:00:01.568     4 141 kbps      6 469 kbps      00:01:37.764    0 kbps          00:00:00.000    0 kbps          00:00:00.000    17 649 bytes    141 808 bytes   00:01:37.897
[br]
STREAM DIAGNOSTICS:
[br]
File            PID             Type            Codec           Language                Seconds                 Bitrate                 Bytes           Packets
----            ---             ----            -----           --------                --------------          --------------          -------------   -----
00012.M2TS      4113 (0x1011)   0x1B            AVC                                     98,665                  22 021                  271 585 574     1 477 735
00012.M2TS      4352 (0x1100)   0x80            LPCM            und (Undetermined)      98,665                  1 544                   19 042 856      118 524
00012.M2TS      4353 (0x1101)   0x80            LPCM            und (Undetermined)      98,665                  1 544                   19 042 856      118 524
<---- END FORUMS PASTE ---->
QUICK SUMMARY:
Disc Title: MOZART DON GIOVANNI
Disc Size: 43 446 157 229 bytes
Protection: AACS
BD-Java: No
Playlist: 00002.MPLS
Size: 329 877 504 bytes
Length: 0:01:38.798
Total Bitrate: 26,71 Mbps
Video: MPEG-4 AVC Video / 21991 kbps / 1080i / 29,970 fps / 16:9 / High Profile 4.1
Audio: Undetermined / LPCM Audio / 2.0 / 48 kHz / 1536 kbps / 16-bit
Audio: Undetermined / LPCM Audio / 2.0 / 48 kHz / 1536 kbps / 16-bit
********************
PLAYLIST: 00006.MPLS
********************
<--- BEGIN FORUMS PASTE --->
Total   Video
Title                                                           Codec   Length  Movie Size      Disc Size       Bitrate Bitrate Main Audio Track                          Secondary Audio Track
-----                                                           ------  ------- --------------  --------------  ------- ------- ------------------                        ---------------------
00006.MPLS                                                      AVC     0:00:53 178 403 328     43 446 157 229  26,72   22,00   LPCM 2.0 1536Kbps (48kHz/16-bit)          LPCM 2.0 1536Kbps (48kHz/16-bit)
DISC INFO:
[br]
Disc Title:     MOZART DON GIOVANNI
Disc Size:      43 446 157 229 bytes
Protection:     AACS
BD-Java:        No
BDInfo:         0.5.8
[br]
PLAYLIST REPORT:
[br]
Name:                   00006.MPLS
Length:                 0:00:53.420 (h:m:s.ms)
Size:                   178 403 328 bytes
Total Bitrate:          26,72 Mbps
[br]
VIDEO:
[br]
Codec                   Bitrate             Description
-----                   -------             -----------
MPEG-4 AVC Video        21997 kbps          1080i / 29,970 fps / 16:9 / High Profile 4.1
[br]
AUDIO:
[br]
Codec                           Language        Bitrate         Description
-----                           --------        -------         -----------
LPCM Audio                      Undetermined    1536 kbps       2.0 / 48 kHz / 1536 kbps / 16-bit
LPCM Audio                      Undetermined    1536 kbps       2.0 / 48 kHz / 1536 kbps / 16-bit
[br]
FILES:
[br]
Name            Time In         Length          Size            Total Bitrate
----            -------         ------          ----            -------------
00013.M2TS      0:00:00.000     0:00:53.420     178 403 328     26 717
[br]
CHAPTERS:
[br]
Number          Time In         Length          Avg Video Rate  Max 1-Sec Rate  Max 1-Sec Time  Max 5-Sec Rate  Max 5-Sec Time  Max 10Sec Rate  Max 10Sec Time  Avg Frame Size  Max Frame Size  Max Frame Time
------          -------         ------          --------------  --------------  --------------  --------------  --------------  --------------  --------------  --------------  --------------  --------------
1               0:00:00.000     0:00:51.418     22 710 kbps     35 444 kbps     00:00:42.509    32 810 kbps     00:00:41.207    30 060 kbps     00:00:36.503    94 658 bytes    364 564 bytes   00:00:09.542
2               0:00:51.418     0:00:02.002     3 679 kbps      4 234 kbps      00:00:52.385    0 kbps          00:00:00.000    0 kbps          00:00:00.000    15 604 bytes    141 783 bytes   00:00:53.386
[br]
STREAM DIAGNOSTICS:
[br]
File            PID             Type            Codec           Language                Seconds                 Bitrate                 Bytes           Packets
----            ---             ----            -----           --------                --------------          --------------          -------------   -----
00013.M2TS      4113 (0x1011)   0x1B            AVC                                     53,287                  22 052                  146 882 639     799 160
00013.M2TS      4352 (0x1100)   0x80            LPCM            und (Undetermined)      53,287                  1 546                   10 300 340      64 110
00013.M2TS      4353 (0x1101)   0x80            LPCM            und (Undetermined)      53,287                  1 546                   10 300 340      64 110
<---- END FORUMS PASTE ---->
QUICK SUMMARY:
Disc Title: MOZART DON GIOVANNI
Disc Size: 43 446 157 229 bytes
Protection: AACS
BD-Java: No
Playlist: 00006.MPLS
Size: 178 403 328 bytes
Length: 0:00:53.420
Total Bitrate: 26,72 Mbps
Video: MPEG-4 AVC Video / 21997 kbps / 1080i / 29,970 fps / 16:9 / High Profile 4.1
Audio: Undetermined / LPCM Audio / 2.0 / 48 kHz / 1536 kbps / 16-bit
Audio: Undetermined / LPCM Audio / 2.0 / 48 kHz / 1536 kbps / 16-bit
********************
PLAYLIST: 00005.MPLS
********************
<--- BEGIN FORUMS PASTE --->
Total   Video
Title                                                           Codec   Length  Movie Size      Disc Size       Bitrate Bitrate Main Audio Track                          Secondary Audio Track
-----                                                           ------  ------- --------------  --------------  ------- ------- ------------------                        ---------------------
00005.MPLS                                                      AVC     0:00:52 175 147 008     43 446 157 229  26,71   21,99   LPCM 2.0 1536Kbps (48kHz/16-bit)          LPCM 2.0 1536Kbps (48kHz/16-bit)
DISC INFO:
[br]
Disc Title:     MOZART DON GIOVANNI
Disc Size:      43 446 157 229 bytes
Protection:     AACS
BD-Java:        No
BDInfo:         0.5.8
[br]
PLAYLIST REPORT:
[br]
Name:                   00005.MPLS
Length:                 0:00:52.452 (h:m:s.ms)
Size:                   175 147 008 bytes
Total Bitrate:          26,71 Mbps
[br]
VIDEO:
[br]
Codec                   Bitrate             Description
-----                   -------             -----------
MPEG-4 AVC Video        21994 kbps          1080i / 29,970 fps / 16:9 / High Profile 4.1
[br]
AUDIO:
[br]
Codec                           Language        Bitrate         Description
-----                           --------        -------         -----------
LPCM Audio                      Undetermined    1536 kbps       2.0 / 48 kHz / 1536 kbps / 16-bit
LPCM Audio                      Undetermined    1536 kbps       2.0 / 48 kHz / 1536 kbps / 16-bit
[br]
FILES:
[br]
Name            Time In         Length          Size            Total Bitrate
----            -------         ------          ----            -------------
00009.M2TS      0:00:00.000     0:00:52.452     175 147 008     26 713
[br]
CHAPTERS:
[br]
Number          Time In         Length          Avg Video Rate  Max 1-Sec Rate  Max 1-Sec Time  Max 5-Sec Rate  Max 5-Sec Time  Max 10Sec Rate  Max 10Sec Time  Avg Frame Size  Max Frame Size  Max Frame Time
------          -------         ------          --------------  --------------  --------------  --------------  --------------  --------------  --------------  --------------  --------------  --------------
1               0:00:00.000     0:00:52.452     21 994 kbps     33 858 kbps     00:00:28.895    32 468 kbps     00:00:27.961    29 985 kbps     00:00:23.056    91 731 bytes    297 641 bytes   00:00:39.439
[br]
STREAM DIAGNOSTICS:
[br]
File            PID             Type            Codec           Language                Seconds                 Bitrate                 Bytes           Packets
----            ---             ----            -----           --------                --------------          --------------          -------------   -----
00009.M2TS      4113 (0x1011)   0x1B            AVC                                     52,319                  22 050                  144 201 789     784 568
00009.M2TS      4352 (0x1100)   0x80            LPCM            und (Undetermined)      52,319                  1 546                   10 113 324      62 946
00009.M2TS      4353 (0x1101)   0x80            LPCM            und (Undetermined)      52,319                  1 546                   10 113 324      62 946
<---- END FORUMS PASTE ---->
QUICK SUMMARY:
Disc Title: MOZART DON GIOVANNI
Disc Size: 43 446 157 229 bytes
Protection: AACS
BD-Java: No
Playlist: 00005.MPLS
Size: 175 147 008 bytes
Length: 0:00:52.452
Total Bitrate: 26,71 Mbps
Video: MPEG-4 AVC Video / 21994 kbps / 1080i / 29,970 fps / 16:9 / High Profile 4.1
Audio: Undetermined / LPCM Audio / 2.0 / 48 kHz / 1536 kbps / 16-bit
Audio: Undetermined / LPCM Audio / 2.0 / 48 kHz / 1536 kbps / 16-bit
********************
PLAYLIST: 00003.MPLS
********************
<--- BEGIN FORUMS PASTE --->
Total   Video
Title                                                           Codec   Length  Movie Size      Disc Size       Bitrate Bitrate Main Audio Track                          Secondary Audio Track
-----                                                           ------  ------- --------------  --------------  ------- ------- ------------------                        ---------------------
00003.MPLS                                                      AVC     0:00:51 172 179 456     43 446 157 229  26,72   22,00   LPCM 2.0 1536Kbps (48kHz/16-bit)          LPCM 2.0 1536Kbps (48kHz/16-bit)
DISC INFO:
[br]
Disc Title:     MOZART DON GIOVANNI
Disc Size:      43 446 157 229 bytes
Protection:     AACS
BD-Java:        No
BDInfo:         0.5.8
[br]
PLAYLIST REPORT:
[br]
Name:                   00003.MPLS
Length:                 0:00:51.551 (h:m:s.ms)
Size:                   172 179 456 bytes
Total Bitrate:          26,72 Mbps
[br]
VIDEO:
[br]
Codec                   Bitrate             Description
-----                   -------             -----------
MPEG-4 AVC Video        21998 kbps          1080i / 29,970 fps / 16:9 / High Profile 4.1
[br]
AUDIO:
[br]
Codec                           Language        Bitrate         Description
-----                           --------        -------         -----------
LPCM Audio                      Undetermined    1536 kbps       2.0 / 48 kHz / 1536 kbps / 16-bit
LPCM Audio                      Undetermined    1536 kbps       2.0 / 48 kHz / 1536 kbps / 16-bit
[br]
FILES:
[br]
Name            Time In         Length          Size            Total Bitrate
----            -------         ------          ----            -------------
00006.M2TS      0:00:00.000     0:00:51.551     172 179 456     26 720
[br]
CHAPTERS:
[br]
Number          Time In         Length          Avg Video Rate  Max 1-Sec Rate  Max 1-Sec Time  Max 5-Sec Rate  Max 5-Sec Time  Max 10Sec Rate  Max 10Sec Time  Avg Frame Size  Max Frame Size  Max Frame Time
------          -------         ------          --------------  --------------  --------------  --------------  --------------  --------------  --------------  --------------  --------------  --------------
1               0:00:00.000     0:00:50.216     22 474 kbps     30 593 kbps     00:00:13.046    28 073 kbps     00:00:38.138    27 569 kbps     00:00:38.338    93 673 bytes    350 264 bytes   00:00:46.379
2               0:00:50.216     0:00:01.334     4 070 kbps      4 954 kbps      00:00:50.517    0 kbps          00:00:00.000    0 kbps          00:00:00.000    17 412 bytes    141 783 bytes   00:00:51.518
[br]
STREAM DIAGNOSTICS:
[br]
File            PID             Type            Codec           Language                Seconds                 Bitrate                 Bytes           Packets
----            ---             ----            -----           --------                --------------          --------------          -------------   -----
00006.M2TS      4113 (0x1011)   0x1B            AVC                                     51,418                  22 055                  141 750 698     771 286
00006.M2TS      4352 (0x1100)   0x80            LPCM            und (Undetermined)      51,418                  1 547                   9 939 804       61 866
00006.M2TS      4353 (0x1101)   0x80            LPCM            und (Undetermined)      51,418                  1 547                   9 939 804       61 866
<---- END FORUMS PASTE ---->
QUICK SUMMARY:
Disc Title: MOZART DON GIOVANNI
Disc Size: 43 446 157 229 bytes
Protection: AACS
BD-Java: No
Playlist: 00003.MPLS
Size: 172 179 456 bytes
Length: 0:00:51.551
Total Bitrate: 26,72 Mbps
Video: MPEG-4 AVC Video / 21998 kbps / 1080i / 29,970 fps / 16:9 / High Profile 4.1
Audio: Undetermined / LPCM Audio / 2.0 / 48 kHz / 1536 kbps / 16-bit
Audio: Undetermined / LPCM Audio / 2.0 / 48 kHz / 1536 kbps / 16-bit
********************
PLAYLIST: 00000.MPLS
********************
<--- BEGIN FORUMS PASTE --->
Total   Video
Title                                                           Codec   Length  Movie Size      Disc Size       Bitrate Bitrate Main Audio Track                          Secondary Audio Track
-----                                                           ------  ------- --------------  --------------  ------- ------- ------------------                        ---------------------
00000.MPLS                                                      AVC     0:00:20 20 453 376      43 446 157 229  7,99    7,58
DISC INFO:
[br]
Disc Title:     MOZART DON GIOVANNI
Disc Size:      43 446 157 229 bytes
Protection:     AACS
BD-Java:        No
BDInfo:         0.5.8
[br]
PLAYLIST REPORT:
[br]
Name:                   00000.MPLS
Length:                 0:00:20.487 (h:m:s.ms)
Size:                   20 453 376 bytes
Total Bitrate:          7,99 Mbps
[br]
VIDEO:
[br]
Codec                   Bitrate             Description
-----                   -------             -----------
MPEG-4 AVC Video        7578 kbps           1080i / 29,970 fps / 16:9 / High Profile 4.1
[br]
FILES:
[br]
Name            Time In         Length          Size            Total Bitrate
----            -------         ------          ----            -------------
00004.M2TS      0:00:00.000     0:00:08.408     13 111 296      12 474
00005.M2TS      0:00:08.408     0:00:06.039     3 213 312       4 256
00011.M2TS      0:00:14.447     0:00:06.039     4 128 768       5 469
[br]
CHAPTERS:
[br]
Number          Time In         Length          Avg Video Rate  Max 1-Sec Rate  Max 1-Sec Time  Max 5-Sec Rate  Max 5-Sec Time  Max 10Sec Rate  Max 10Sec Time  Avg Frame Size  Max Frame Size  Max Frame Time
------          -------         ------          --------------  --------------  --------------  --------------  --------------  --------------  --------------  --------------  --------------  --------------
1               0:00:00.000     0:00:08.408     11 877 kbps     20 588 kbps     00:00:00.400    12 485 kbps     00:00:00.400    0 kbps          00:00:00.000    49 339 bytes    329 383 bytes   00:00:04.003
2               0:00:08.408     0:00:05.572     3 960 kbps      6 031 kbps      00:00:09.275    4 364 kbps      00:00:08.875    0 kbps          00:00:00.000    16 515 bytes    133 467 bytes   00:00:09.342
3               0:00:13.980     0:00:06.506     5 121 kbps      10 328 kbps     00:00:14.848    5 652 kbps      00:00:14.881    0 kbps          00:00:00.000    21 467 bytes    133 467 bytes   00:00:17.350
[br]
STREAM DIAGNOSTICS:
[br]
File            PID             Type            Codec           Language                Seconds                 Bitrate                 Bytes           Packets
----            ---             ----            -----           --------                --------------          --------------          -------------   -----
00004.M2TS      4113 (0x1011)   0x1B            AVC                                     8,275                   12 067                  12 481 688      67 975
00005.M2TS      4113 (0x1011)   0x1B            AVC                                     5,906                   4 093                   3 021 881       16 516
00011.M2TS      4113 (0x1011)   0x1B            AVC                                     5,906                   5 286                   3 902 053       21 294
<---- END FORUMS PASTE ---->
QUICK SUMMARY:
Disc Title: MOZART DON GIOVANNI
Disc Size: 43 446 157 229 bytes
Protection: AACS
BD-Java: No
Playlist: 00000.MPLS
Size: 20 453 376 bytes
Length: 0:00:20.487
Total Bitrate: 7,99 Mbps
Video: MPEG-4 AVC Video / 7578 kbps / 1080i / 29,970 fps / 16:9 / High Profile 4.1

MediaInfo

Общее
Идентификатор : 0 (0x0)
Полное имя : I:\MOZART DON GIOVANNI\BDMV\STREAM\00001.m2ts
Формат : BDAV
Формат/Информация : Blu-ray Video
Размер файла : 19,4 Гбайт
Продолжительность : 1 ч. 27 м.
Режим общего битрейта : Переменный
Общий поток : 31,8 Мбит/сек
Максимальный общий битрейт : 48,0 Мбит/сек
Видео
Идентификатор : 4113 (0x1011)
Идентификатор меню : 1 (0x1)
Формат : AVC
Формат/Информация : Advanced Video Codec
Профиль формата : High@L4.1
Параметр CABAC формата : Да
Параметр ReFrames формата : 4 кадра
Идентификатор кодека : 27
Продолжительность : 1 ч. 27 м.
Вид битрейта : Переменный
Максимальный битрейт : 30,5 Мбит/сек
Ширина : 1920 пикселей
Высота : 1080 пикселей
Соотношение сторон : 16:9
Частота кадров : 29,970 кадров/сек
Цветовое пространство : YUV
Субдискретизация насыщенности : 4:2:0
Битовая глубина : 8 бит
Тип развёртки : MBAFF
Аудио #1
Идентификатор : 4352 (0x1100)
Идентификатор меню : 1 (0x1)
Формат : PCM
Параметр Endianness формата : Big
Параметр Sign формата : Signed
Режим смешивания : Blu-ray
Идентификатор кодека : 128
Продолжительность : 1 ч. 27 м.
Вид битрейта : Постоянный
Битрейт : 2304 Кбит/сек
Каналы : 2 канала
Расположение каналов : Front: L R
Частота : 48,0 КГц
Битовая глубина : 24 бит
Размер потока : 1,41 Гбайт (7%)
Аудио #2
Идентификатор : 4353 (0x1101)
Идентификатор меню : 1 (0x1)
Формат : DTS
Формат/Информация : Digital Theater Systems
Профиль формата : MA / Core
Режим : 16
Параметр Endianness формата : Big
Режим смешивания : Stream extension
Идентификатор кодека : 134
Продолжительность : 1 ч. 27 м.
Вид битрейта : Переменный
Битрейт : Неизвестно / 1509 Кбит/сек
Каналы : 5 каналов
Расположение каналов : Front: L C R, Side: L R
Частота : 48,0 КГц
Битовая глубина : 24 бит
Метод сжатия : Без потерь / Lossy
Текст #1
Идентификатор : 4608 (0x1200)
Идентификатор меню : 1 (0x1)
Формат : PGS
Идентификатор кодека : 144
Текст #2
Идентификатор : 4609 (0x1201)
Идентификатор меню : 1 (0x1)
Формат : PGS
Идентификатор кодека : 144
Текст #3
Идентификатор : 4610 (0x1202)
Идентификатор меню : 1 (0x1)
Формат : PGS
Идентификатор кодека : 144
Текст #4
Идентификатор : 4611 (0x1203)
Идентификатор меню : 1 (0x1)
Формат : PGS
Идентификатор кодека : 144
Текст #5
Идентификатор : 4612 (0x1204)
Идентификатор меню : 1 (0x1)
Формат : PGS
Идентификатор кодека : 144
Текст #6
Идентификатор : 4613 (0x1205)
Идентификатор меню : 1 (0x1)
Формат : PGS
Идентификатор кодека : 144
Текст #7
Идентификатор : 4614 (0x1206)
Идентификатор меню : 1 (0x1)
Формат : PGS
Идентификатор кодека : 144
Текст #8
Идентификатор : 4615 (0x1207)
Идентификатор меню : 1 (0x1)
Формат : PGS
Идентификатор кодека : 144



Показать сообщения:    

Текущее время: 05-Дек 11:33

Часовой пояс: UTC + 3


Вы не можете начинать темы
Вы не можете отвечать на сообщения
Вы не можете редактировать свои сообщения
Вы не можете удалять свои сообщения
Вы не можете голосовать в опросах
Вы не можете прикреплять файлы к сообщениям
Вы не можете скачивать файлы