(Classical) Бетховен - Эгмонт / Beethoven - Egmont (Elisabeth Breul, Horst Schulze - Staatskapelle Berlin, Heinz Bongartz) - 1996, APE (image+.cue) lossless


 

[Цитировать]

Ludwig von Beethoven - Egmont
Жанр: Classical
Страна-производитель диска: Germany
Год издания диска: 1996
Издатель (лейбл): Berlin Classics
Номер по каталогу: 009 1062BC
Дата записи: 1970
Аудиокодек: APE
Тип рипа: image+.cue
Битрейт аудио: lossless
Продолжительность: 46'37
Источник: собственный рип
Наличие сканов в содержимом раздачи: да
Треклист:
Треклист:
1.Overture
2.Song, Die Trommel geruhet (The Drum Resounds) (Clara)
3.Entr'acte No. 1. Andante - Allegro con Brio
4.Entr'acte No. 2. Larghetto
5.Song, Freudvoll und Leidvoll (Blissful and Tearful) (Clara)
6.Entr'acte No. 3. Allegro - Marcia, Vivace
7.Entr'acte No. 4. Larghetto
8.Monologue: Alte Freund! immer getreuer Schlaf (Egmont)
9.Clara's Death: Larghetto
10.Monologue: Es ist vorbie (Egmont)
11.Melodrama (Egmont)
12.Monologue: Verschwunden ist der Kranz (Egmont)
13.Sieges Symphonie
Исполнители:
Ludwig von Beethoven - Egmont
Music to Goethes Tragedy op. 84
Elisabeth Breul (Sopran)
Horst Schulze (Sprecher)
Staatskapelle Berlin
Heinz Bongartz

Лог создания рипа

Exact Audio Copy V1.0 beta 3 from 29. August 2011
EAC extraction logfile from 5. July 2013, 17:59
Beethoven / Music to Goethe's tragedy "Egmont", Bongartz 1970
Used drive : TSSTcorpCDDVDW SE-208AB Adapter: 1 ID: 0
Read mode : Secure
Utilize accurate stream : Yes
Defeat audio cache : Yes
Make use of C2 pointers : No
Read offset correction : 6
Overread into Lead-In and Lead-Out : No
Fill up missing offset samples with silence : Yes
Delete leading and trailing silent blocks : No
Null samples used in CRC calculations : Yes
Used interface : Native Win32 interface for Win NT & 2000
Used output format : Monkey's Audio Lossless Encoder
Selected bitrate : High Lossless Compression
Quality : High
Add ID3 tag : Yes
Command line compressor : K:\Program Files (x86)\Exact Audio Copy\Monkeys Audio\Monkey's Audio\MAC.exe
Additional command line options : -6 -V -T "ARTIST=%artist%" -T "TITLE=%title%" -T "ALBUM=%albumtitle%" -T "DATE=%year%" -T "TRACKNUMBER=%tracknr%" -T "GENRE=%genre%" -T "COMMENT=%comment%" -T "BAND=%albuminterpret%" -T "ALBUMARTIST=%albuminterpret%" -T "COMPOSER=%composer%" %haslyrics%--tag-from-file=LYRICS="%lyricsfile%"%haslyrics% -T "DISCNUMBER=%cdnumber%" -T "TOTALDISCS=%totalcds%" -T "TOTALTRACKS=%numtracks%" %hascover%--picture="%coverfile%"%hascover% %source% -o %dest%
TOC of the extracted CD
Track | Start | Length | Start sector | End sector
---------------------------------------------------------
1 | 0:00.00 | 9:03.15 | 0 | 40739
2 | 9:03.15 | 2:57.37 | 40740 | 54051
3 | 12:00.52 | 3:39.33 | 54052 | 70509
4 | 15:40.10 | 5:34.22 | 70510 | 95581
5 | 21:14.32 | 1:55.00 | 95582 | 104206
6 | 23:09.32 | 3:54.00 | 104207 | 121756
7 | 27:03.32 | 4:34.08 | 121757 | 142314
8 | 31:37.40 | 3:47.37 | 142315 | 159376
9 | 35:25.02 | 2:23.53 | 159377 | 170154
10 | 37:48.55 | 0:19.00 | 170155 | 171579
11 | 38:07.55 | 4:58.45 | 171580 | 193974
12 | 43:06.25 | 2:01.37 | 193975 | 203086
13 | 45:07.62 | 1:31.65 | 203087 | 209976
Range status and errors
Selected range
Filename I:\Foobar-EAC\Beethoven - Music to Goethe's tragedy ''Egmont'', Bongartz 1970.wav
Peak level 98.0 %
Extraction speed 1.8 X
Range quality 100.0 %
Test CRC 4C5F9F9C
Copy CRC 4C5F9F9C
Copy OK
No errors occurred
AccurateRip summary
Track 1 cannot be verified as accurate (confidence 24) [E188E21A], AccurateRip returned [D5607111] (AR v2)
Track 2 cannot be verified as accurate (confidence 24) [AF4A9627], AccurateRip returned [43C5BEA9] (AR v2)
Track 3 cannot be verified as accurate (confidence 24) [971A1511], AccurateRip returned [72F6BE81] (AR v2)
Track 4 cannot be verified as accurate (confidence 24) [D4B38BA3], AccurateRip returned [49D42EAB] (AR v2)
Track 5 cannot be verified as accurate (confidence 24) [EBCDD145], AccurateRip returned [9248D457] (AR v2)
Track 6 cannot be verified as accurate (confidence 24) [5BBA9276], AccurateRip returned [FF513074] (AR v2)
Track 7 cannot be verified as accurate (confidence 24) [1C2F14FE], AccurateRip returned [D357CCA1] (AR v2)
Track 8 cannot be verified as accurate (confidence 24) [48FEA282], AccurateRip returned [08696B6A] (AR v2)
Track 9 cannot be verified as accurate (confidence 24) [E92D071A], AccurateRip returned [3F3782CC] (AR v2)
Track 10 cannot be verified as accurate (confidence 24) [A18D6761], AccurateRip returned [10C7456B] (AR v2)
Track 11 cannot be verified as accurate (confidence 24) [2E712C5E], AccurateRip returned [7C61A50E] (AR v2)
Track 12 cannot be verified as accurate (confidence 24) [A9044FBA], AccurateRip returned [F340780E] (AR v2)
Track 13 cannot be verified as accurate (confidence 24) [1493425B], AccurateRip returned [2C9853E9] (AR v2)
No tracks could be verified as accurate
You may have a different pressing from the one(s) in the database
End of status report
==== Log checksum CF0798D51C66EB807A024A5185AC339F9D672755B2D1EE84889B845DD9A05F3E ====

Содержание индексной карты (.CUE)

REM GENRE Opera
REM DATE 1970
REM DISCID C60AEF0D
REM COMMENT "ExactAudioCopy v1.0b3"
CATALOG 0000000000000
PERFORMER "Beethoven"
TITLE "Music to Goethe's tragedy 'Egmont', Bongartz 1970"
FILE "Beethoven - Music to Goethe's tragedy ''Egmont'', Bongartz 1970.ape" WAVE
TRACK 01 AUDIO
TITLE "Egmont, Op.84 - 1 Ouverture"
PERFORMER "Beethoven"
INDEX 01 00:00:00
TRACK 02 AUDIO
TITLE "Egmont, Op.84 - 2 No.1 Lied - ''Die Trommel gerühret!''"
PERFORMER "Beethoven"
INDEX 01 09:03:15
TRACK 03 AUDIO
TITLE "Egmont, Op.84 - 3 No.2 - ''Zwischenakt I''"
PERFORMER "Beethoven"
INDEX 01 12:00:52
TRACK 04 AUDIO
TITLE "Egmont, Op.84 - 4 No.3 - ''Zwischenakt II''"
PERFORMER "Beethoven"
INDEX 01 15:40:10
TRACK 05 AUDIO
TITLE "Egmont, Op.84 - 5 No.4 Lied - ''Freudvoll und Leidvoll''"
PERFORMER "Beethoven"
INDEX 01 21:14:32
TRACK 06 AUDIO
TITLE "Egmont, Op.84 - 6 No.5 - ''Zwischenakt III''"
PERFORMER "Beethoven"
INDEX 01 23:09:32
TRACK 07 AUDIO
TITLE "Egmont, Op.84 - 7 No.6 - ''Zwischenakt IV''"
PERFORMER "Beethoven"
INDEX 01 27:03:32
TRACK 08 AUDIO
TITLE "Egmont, Op.84 - 8 Monolog - ''Alter Freund!''"
PERFORMER "Beethoven"
INDEX 01 31:37:40
TRACK 09 AUDIO
TITLE "Egmont, Op.84 - 9 No.7 Musik - ''Klärchen's Tod bezeichnend''"
PERFORMER "Beethoven"
INDEX 01 35:25:02
TRACK 10 AUDIO
TITLE "Egmont, Op.84 - 10 Monolog - ''Es ist vorbei''"
PERFORMER "Beethoven"
INDEX 01 37:48:55
TRACK 11 AUDIO
TITLE "Egmont, Op.84 - 11 No.8 Melodram - ''Süsser Schlaf''"
PERFORMER "Beethoven"
INDEX 01 38:07:55
TRACK 12 AUDIO
TITLE "Egmont, Op.84 - 12 Monolog - ''Verschwunden ist der Kranz''"
PERFORMER "Beethoven"
INDEX 01 43:06:25
TRACK 13 AUDIO
TITLE "Egmont, Op.84 - 13 No.9 - ''Siegessymphonie''"
PERFORMER "Beethoven"
INDEX 01 45:07:62



Показать сообщения:    

Текущее время: 04-Дек 09:09

Часовой пояс: UTC + 3


Вы не можете начинать темы
Вы не можете отвечать на сообщения
Вы не можете редактировать свои сообщения
Вы не можете удалять свои сообщения
Вы не можете голосовать в опросах
Вы не можете прикреплять файлы к сообщениям
Вы не можете скачивать файлы