Franz Schubert - Fierrabras (Wiener Philharmoniker, Ingo Metzmacher, Michael Schade, Julia Kleiter, Benjamin Bernheim, Dorothea Roschmann, Markus Werba, Georg Zeppenfeld, Peter Kalman) Salzburger Festspiele [2014, Opera, HDTV 720p]


 

[Цитировать]

Fierrabras
Heroisch-romantische Oper in drei Akten
von
Franz Schubert

Salzburger Festspiele 2014
Wiener Philharmoniker • Ingo Metzmacher

-
Год выпуска: 2014
Лейбл: ZDF
Жанр: Opera
Продолжительность: 02:43:27
Язык: немецкий
Субтитры: немецкие (неотключаемые)
Режиссер: Peter Stein
Исполнители:
Fierrabras - Michael Schade
Emma - Julia Kleiter
Eginhard - Benjamin Bernheim
Florinda - Dorothea Röschmann
Roland - Markus Werba
König Karl - Georg Zeppenfeld
Boland - Peter Kálmán
Maragond - Marie-Claude Chappuis
Brutamonte - Manuel Walser
Libretto von Joseph Kupelwieser nach dem altfranzösischen Heldenepos
Fierabras (um 1170) und der Sage Eginhard und Emma

Bühnenbild - Ferdinand Wögerbauer
Chor - Konzertvereinigung, Wiener Staatsopernchor
Orchester - Wiener Philharmoniker
Musikalische Leitung - Ingo Metzmacher
Треклист:
Franz Schubert - Fierrabras. Heroisch-romantische Oper in drei Akten
Доп. информация:
Haus für Mozart, Salzburger Festspiele 2014
Ingo Metzmacher Official Site
Ingo Metzmacher from Wikipedia, the free encyclopedia
Michael Schade from Wikipedia, the free encyclopedia
Julia Kleiter Official Site
Julia Kleiter from Wikipedia, the free encyclopedia
Качество видео: HDTV 720p
Контейнер: TS
Видео кодек: H.264
Аудио кодек: AC3
Видео поток: 11.0 Mbps, 1280*720 (16:9), at 50.000 fps, AVC (High@L4.0) (CABAC / 6 Ref Frames)
Аудио поток: German, 256 Kbps, 48.0 KHz, 2 channels, MPEG Audio (Version 1) (Layer 2)
Аудио 2: 192 Kbps, 48.0 KHz, 2 channels, MPEG Audio (Version 1) (Layer 2)
Аудио 3: German, 448 Kbps, 48.0 KHz, 16 bits, 6 channels, AC-3
Аудио 4: Multiple languages, 192 Kbps, 48.0 KHz, 2 channels, MPEG Audio (Version 1) (Layer 2)
Источник: Digital Satellite > SkyStar HD2 (TechniSat) > raw data to HDD > Cypheros TS-Doctor > ts

MediaInfo

General
ID : 8900 (0x22C4)
Complete name : C:\rutracker.org_HD\3sat HD_Franz Schubert ''Fierrabras'' 2014.ts
Format : MPEG-TS
File size : 14.5 GiB
Duration : 2h 43mn
Overall bit rate mode : Variable
Overall bit rate : 12.7 Mbps
Video
ID : 6510 (0x196E)
Menu ID : 11150 (0x2B8E)
Format : AVC
Format/Info : Advanced Video Codec
Format profile : High@L4.0
Format settings, CABAC : Yes
Format settings, ReFrames : 6 frames
Codec ID : 27
Duration : 2h 43mn
Bit rate : 11.0 Mbps
Width : 1 280 pixels
Height : 720 pixels
Display aspect ratio : 16:9
Frame rate : 50.000 fps
Color space : YUV
Chroma subsampling : 4:2:0
Bit depth : 8 bits
Scan type : Progressive
Bits/(Pixel*Frame) : 0.238
Stream size : 12.5 GiB (86%)
Color primaries : BT.709
Transfer characteristics : BT.709
Matrix coefficients : BT.709
Audio #1
ID : 6520 (0x1978)
Menu ID : 11150 (0x2B8E)
Format : MPEG Audio
Format version : Version 1
Format profile : Layer 2
Codec ID : 3
Duration : 2h 43mn
Bit rate mode : Constant
Bit rate : 256 Kbps
Channel(s) : 2 channels
Sampling rate : 48.0 KHz
Compression mode : Lossy
Delay relative to video : 31ms
Stream size : 299 MiB (2%)
Language : German
Audio #2
ID : 6521 (0x1979)
Menu ID : 11150 (0x2B8E)
Format : MPEG Audio
Format version : Version 1
Format profile : Layer 2
Codec ID : 3
Duration : 2h 43mn
Bit rate mode : Constant
Bit rate : 192 Kbps
Channel(s) : 2 channels
Sampling rate : 48.0 KHz
Compression mode : Lossy
Delay relative to video : 31ms
Stream size : 224 MiB (2%)
Audio #3
ID : 6522 (0x197A)
Menu ID : 11150 (0x2B8E)
Format : AC-3
Format/Info : Audio Coding 3
Mode extension : CM (complete main)
Format settings, Endianness : Big
Codec ID : 6
Duration : 2h 43mn
Bit rate mode : Constant
Bit rate : 448 Kbps
Channel(s) : 6 channels
Channel positions : Front: L C R, Side: L R, LFE
Sampling rate : 48.0 KHz
Bit depth : 16 bits
Compression mode : Lossy
Delay relative to video : 40ms
Stream size : 524 MiB (4%)
Language : German
Audio #4
ID : 6523 (0x197B)
Menu ID : 11150 (0x2B8E)
Format : MPEG Audio
Format version : Version 1
Format profile : Layer 2
Codec ID : 3
Duration : 2h 43mn
Bit rate mode : Constant
Bit rate : 192 Kbps
Channel(s) : 2 channels
Sampling rate : 48.0 KHz
Compression mode : Lossy
Delay relative to video : 111ms
Stream size : 224 MiB (2%)
Language : Multiple languages

... info ...

Franz Schubert: Fierrabras
Oper in drei Akten
Haus für Mozart, Salzburger Festspiele 2014
Ende des achten Jahrhunderts: Karl der Große führt Krieg gegen die arabischen Besatzer Spaniens, die Mauren. In den Wirren der Auseinandersetzungen versuchen zwei Liebespaare zueinander zu finden: Fierrabras, Sohn des Maurenfürsten Boland, liebt Emma, die Tochter des Frankenkönigs Karls des Großen, der im Krieg steht mit Boland. Fierrabras bekennt sich zum Christentum. Doch seine Liebe wird nicht erwidert. Emma liebt Eginhard, einen tapferen Ritter aus dem christlichen Heer ihres Vaters. Florinda, Fierrabras' Schwester, ist verliebt in Roland, einen weiteren tapferen Ritter aus dem Heer Karls des Großen: Fünf junge Menschen, einander über politische, religiöse und über Standesgrenzen hinweg freundschaftlich verbunden, sind die Protagonisten in Schuberts heroischer "Ritteroper". "Fierrabras" ist Schuberts letztes vollendetes Bühnenwerk, komponiert zwischen Mai und Oktober 1823. Der Komponist hat seine romantisch-heroische Oper nicht mehr auf der Bühne erleben können. 1897 kam es zur szenischen Aufführung einer gekürzten Fassung, erst 1982 gelangte das Werk in seiner dreiaktigen Originalfassung zur Uraufführung.
Unter der Regie von Peter Stein und mit Ingo Metzmacher am Dirigentenpult ist Franz Schuberts "Fierrabras" eines der Highlights der Salzburger Festspielsaison 2014. Es ist das erste Mal in der Geschichte der Festspiele, dass eine Oper von Franz Schubert auf die Bühne gebracht wird. Im "Haus für Mozart" wagt man sich mit einer erstklassigen Besetzung an die selten gespielte Rarität heran: Der international gefeierte Tenor Michael Schade übernimmt die Rolle des Titelhelden "Fierrabras", Dorothea Röschmann ist "Florinda", die Sopranistin Julia Kleiter debütiert als "Emma".
~ 3sat.de



Показать сообщения:    

Текущее время: 05-Дек 23:41

Часовой пояс: UTC + 3


Вы не можете начинать темы
Вы не можете отвечать на сообщения
Вы не можете редактировать свои сообщения
Вы не можете удалять свои сообщения
Вы не можете голосовать в опросах
Вы не можете прикреплять файлы к сообщениям
Вы не можете скачивать файлы