Смерть Ивана Ильича (Сергей Бобровский) [2010 г., драма, SATRip] Липецкий академический театр драмы им. Л.Толстого


 

[Цитировать]

Смерть Ивана Ильича Название театра: Липецкий академический театр драмы им. Л.Толстого.
Год выпуска: 2010.
Жанр: драма.
Продолжительность: 02:31:57.
Режиссер: Сергей Бобровский.
Действующие лица и исполнители:
Иван - Максим Дмитроченков,
Федор - Евгений Азманов,
Сын - Андрей Гончаров,
Жених - Максим Заврин,
Шебек - заслуженный артист России Николай Чебыкин,
Шварц - заслуженный артист России Сергей Бельский,
Жена - Екатерина Бельская,
Она - Елена Гаврилица,
Лакей - Сергей Денисов,
Доктор - Хуррам Касымов,
Павел - Эмин Мамедов,
Священник - заслуженный артист России Вячеслав Михеев,
Герасим - Владимир Борисов,
Шебек - заслуженный артист России Владимир Кравченко,
Гомеопат - Александр Скачков,
Графиня - Екатерина Байбородова,
Она- Анастасия Абаева,
Дочь - Лилия Ачкасова.
О спектакле:
Жанр спектакля по повести Льва Толстого "Смерть Ивана Ильича" режиссер Сергей Бобровский определил как comme il faut-ная драма и сместил время действия в сегодняшний день, а смерть героя стала событием нашего дня. Сцену то и дело заполняют коллеги Ивана Ильича, не чиновники 19 века, а нынешние менеджеры среднего звена, которые появляются в спектакле с ноутбуками, и весело и дружно скользят по жизни. Они же поначалу - и бодрые рассказчики первой части истории Толстого. Точно такой же хор, сменив деловые костюмы на врачебные белые халаты, появится в спектакле, когда Иван Ильич осознает, что наступает его, именно его личная смерть.
Дополнительная информация:
Страна: Россия .
Выпущено: Культура.рф.
Автор: Лев Николаевич Толстой.

О спектакле.
Релиз
Рип sharky.

Качество видео:...SATRip
Формат:.................AVI
Видео:..720x400 (1.80:1), 25 fps, XviD MPEG-4 ~1573 kbps avg, 0.22 bit/pixel
Аудио:..44.100 kHz, MPEG Layer 3, 2 ch, ~128.00 kbps avg

Отчет MI

Общее
Полное имя : Smert.Ivana.Ilicha_Lipeckij.ATD.im.L.Tolstogo.2010.XviD.SATRip.fenixclub.avi
Format : AVI
Format/Info : Audio Video Interleave
File size : 1.36 GiB
Duration : 1h 54mn
Overall bit rate : 1 712 Kbps
Writing application : VirtualDubModRus 1.5.10.2 (build 2542/release)
Writing library : VirtualDub build 32842/release
Video
ID : 0
Format : MPEG-4 Visual
Format profile : Advanced Simple@L5
Format settings, BVOP : 2
Format settings, QPel : No
Format settings, GMC : No warppoints
Format settings, Matrix : Default (H.263)
Muxing mode : Packed bitstream
Codec ID : XVID
Codec ID/Hint : XviD
Duration : 1h 54mn
Bit rate : 1 574 Kbps
Width : 720 pixels
Height : 400 pixels
Display aspect ratio : 16:9
Frame rate : 25.000 fps
Color space : YUV
Chroma subsampling : 4:2:0
Bit depth : 8 bits
Scan type : Progressive
Compression mode : Lossy
Bits/(Pixel*Frame) : 0.219
Stream size : 1.25 GiB (92%)
Writing library : XviD 1.2.1 (UTC 2008-12-04)
Audio
ID : 1
Format : MPEG Audio
Format version : Version 1
Format profile : Layer 3
Mode : Joint stereo
Mode extension : MS Stereo
Codec ID : 55
Codec ID/Hint : MP3
Duration : 1h 54mn
Bit rate mode : Constant
Bit rate : 128 Kbps
Channel(s) : 2 channels
Sampling rate : 44.1 KHz
Compression mode : Lossy
Stream size : 104 MiB (7%)
Alignment : Split accross interleaves
Interleave, duration : 40 ms (1.00 video frame)
Interleave, preload duration : 500 ms
Writing library : LAME3.98

Скриншоты

Альтернативный хост




Показать сообщения:    

Текущее время: 03-Дек 03:23

Часовой пояс: UTC + 3


Вы не можете начинать темы
Вы не можете отвечать на сообщения
Вы не можете редактировать свои сообщения
Вы не можете удалять свои сообщения
Вы не можете голосовать в опросах
Вы не можете прикреплять файлы к сообщениям
Вы не можете скачивать файлы