(Classical) Johannes Brahms - Clarinet Quintet; Clarinet Trio - Thea King, Gabrieli String Quartet, Karine Georgian, Clifford Benson - 1986, FLAC (image+.cue) lossless


 

[Цитировать]

Johannes Brahms - Clarinet Quintet; Clarinet Trio - Thea King, Gabrieli String Quartet, Karine Georgian, Clifford Benson
Жанр: Classical
Страна-производитель диска: UK
Год издания диска: 1986
Издатель (лейбл): Hyperion
Номер по каталогу: CDA66107
Дата записи: 1983
Аудиокодек: FLAC
Тип рипа: image+.cue
Битрейт аудио: lossless
Продолжительность: 65:17
Источник: собственный рип
Наличие сканов в содержимом раздачи: да
Треклист:
Johannes Brahms (1833-1897)
[1]-[4] Clarinet Quintet in B minor, Op.115
Thea King clarinet
Gabrieli String Quartet
[5]-[8] Clarinet Trio in A minor, Op.114
Thea King clarinet
Karine Georgian cello
Clifford Benson piano
Исполнители:
Thea King clarinet
Gabrieli String Quartet
Kenneth Sillito violin
Brendan O'Reilly violin
Ian Jewel viola
Keith Harvey cello
Karine Georgian cello
Clifford Benson piano

Лог создания рипа

Exact Audio Copy V1.0 beta 3 from 29. August 2011
EAC extraction logfile from 26. September 2014, 0:49
Thea King / Brahms - Clarinet Quintet; Clarinet Trio
Used drive : HL-DT-STDVDRAM GU70N Adapter: 0 ID: 0
Read mode : Secure
Utilize accurate stream : Yes
Defeat audio cache : Yes
Make use of C2 pointers : No
Read offset correction : 48
Overread into Lead-In and Lead-Out : No
Fill up missing offset samples with silence : Yes
Delete leading and trailing silent blocks : No
Null samples used in CRC calculations : Yes
Used interface : Native Win32 interface for Win NT & 2000
Used output format : User Defined Encoder
Selected bitrate : 128 kBit/s
Quality : High
Add ID3 tag : No
Command line compressor : C:\Program Files (x86)\Exact Audio Copy\Flac\flac.exe
Additional command line options : -V -8 -T "Date=%year%" -T "Genre=%genre%" %source%
TOC of the extracted CD
Track | Start | Length | Start sector | End sector
---------------------------------------------------------
1 | 0:00.00 | 12:53.28 | 0 | 58002
2 | 12:53.28 | 11:56.72 | 58003 | 111774
3 | 24:50.25 | 4:44.35 | 111775 | 133109
4 | 29:34.60 | 9:01.23 | 133110 | 173707
5 | 38:36.08 | 8:30.35 | 173708 | 211992
6 | 47:06.43 | 8:23.27 | 211993 | 249744
7 | 55:29.70 | 5:01.38 | 249745 | 272357
8 | 60:31.33 | 4:45.60 | 272358 | 293792
Range status and errors
Selected range
Filename C:\temp\CDA66107 - Brahms - Clarinet Quintet; Clarinet Trio\Brahms - Clarinet Quintet; Clarinet Trio.wav
Peak level 85.4 %
Extraction speed 5.1 X
Range quality 100.0 %
Test CRC 581062D5
Copy CRC 581062D5
Copy OK
No errors occurred
AccurateRip summary
Track 1 cannot be verified as accurate (confidence 14) [4B9BE330], AccurateRip returned [0024D327] (AR v2)
Track 2 cannot be verified as accurate (confidence 14) [1ADBA8DA], AccurateRip returned [5E76DB41] (AR v2)
Track 3 cannot be verified as accurate (confidence 14) [BEE49300], AccurateRip returned [733CA142] (AR v2)
Track 4 cannot be verified as accurate (confidence 14) [AD3A984A], AccurateRip returned [D7FA135A] (AR v2)
Track 5 cannot be verified as accurate (confidence 13) [FCCCB19A], AccurateRip returned [F5769CB5] (AR v2)
Track 6 cannot be verified as accurate (confidence 14) [23A81CA6], AccurateRip returned [1E9C33FA] (AR v2)
Track 7 cannot be verified as accurate (confidence 14) [8CC19FBF], AccurateRip returned [329BA3BD] (AR v2)
Track 8 cannot be verified as accurate (confidence 14) [2C42C252], AccurateRip returned [E4319149] (AR v2)
No tracks could be verified as accurate
You may have a different pressing from the one(s) in the database
End of status report
==== Log checksum BACBC12846A40093B29D2D056E1C97E8FA5232A4CD808C8C3C155ABB61B44D5D ====



Показать сообщения:    

Текущее время: 07-Дек 23:14

Часовой пояс: UTC + 3


Вы не можете начинать темы
Вы не можете отвечать на сообщения
Вы не можете редактировать свои сообщения
Вы не можете удалять свои сообщения
Вы не можете голосовать в опросах
Вы не можете прикреплять файлы к сообщениям
Вы не можете скачивать файлы