Жан-Поль Бельмондо: Доктор Пополь / Jean-Paul Belmondo: Docteur Popaul (Франс Рош / France Roche) [1972, документальный, кинематограф, IPTVRip] VO (Andi999) + Original (Fre) + Sub (Rus)


Статистика раздачи [Обновить пиров]
Размер:  44 MB   |    Зарегистрирован:  8 месяцев 16 дней   |    Скачан:  0 раз

Полного источника не было: Никогда

Личеров:  3  [  0 KB/s  ]   Подробная статистика пиров
 
   
 
 
 

[Цитировать]

Жан-Поль Бельмондо: Доктор Пополь
Jean-Paul Belmondo: Docteur Popaul- Дата/Год выпуска: 1972
Страна: Франция
Жанр: документальный, кинематограф
Продолжительность: 00:03:13
Перевод: Одноголосый закадровый (Andi999)
Русские субтитры: есть
Формат субтитров: softsub (SRT)
Доп. информация о субтитрах: инициатор Aleks Punk
Оригинальная аудиодорожка: французский
Режиссер: Франс Рош / France Roche
Телеканал: inaОписание: Национальный институт аудиовизуальных средств Франции (Institut national de l'audiovisuel) представляет репортаж о фильме режиссера Клода Шаброля "Доктор Пополь", показанный по французскому телевидению на следующий день после премьеры фильма, в который вошли отрывки из ленты и интервью с исполнителем главной роли актером Жаном-Полем Бельмондо.
Показ канала ORTF от 30 сентября 1972 года. Интервью берет французская актриса, журналист, сценарист и кинокритик Франс Рош / France Roche, которая за время работы на канале Antenne 2 брала интервью у многих знаменитостей, в том числе Брижит Бардо, Кирка Дугласа, Пьера Брассёра, Жана Маре, Анни Жирардо, Симоны Синьоре, Мишеля Пикколи, Жанны Моро и других.
Доп. информация: За предоставленный материал благодарность Aleks Punk

качество: IPTVRip
формат: MKV
Видео: AVC (H.264), 512x384, 25 fps, ~1500 kbps avg, 0.305 bit/pixel
Аудио: AC3, 2 ch, 48 kHz, ~192.00 kbps avg

MediaInfo

Общее
Уникальный идентификатор : 235141120512218904267602482828684981766 (0xB0E68852E94688AAA0BD4D359F567606)
Полное имя : E:\My Torrents 2\[apreder]Jean-Paul_Belmondo_Docteur_Popaul(1972)IPTVRip.mkv
Формат : Matroska
Версия формата : Version 2
Размер файла : 43,6 Мбайт
Продолжительность : 3 м. 13 с.
Общий поток : 1889 Кбит/сек
Дата кодирования : UTC 2015-04-04 06:23:21
Программа кодирования : mkvmerge v7.8.0 ('River Man') 64bit built on Mar 27 2015 16:31:37
Библиотека кодирования : libebml v1.3.1 + libmatroska v1.4.2
Видео
Идентификатор : 1
Формат : AVC
Формат/Информация : Advanced Video Codec
Профиль формата : High@L4.1
Параметр CABAC формата : Да
Параметр ReFrames формата : 16 кадров
Идентификатор кодека : V_MPEG4/ISO/AVC
Продолжительность : 3 м. 13 с.
Битрейт : 1500 Кбит/сек
Ширина : 512 пикселей
Высота : 384 пикселя
Соотношение сторон : 4:3
Режим частоты кадров : Постоянный
Частота кадров : 25,000 кадров/сек
Цветовое пространство : YUV
Субдискретизация насыщенности : 4:2:0
Битовая глубина : 8 бит
Тип развёртки : Прогрессивная
Бит/(Пиксели*Кадры) : 0.305
Размер потока : 33,9 Мбайт (78%)
Библиотека кодирования : x264 core 142 r2431 ac76440
Настройки программы : cabac=1 / ref=16 / deblock=1:-1:-1 / analyse=0x3:0x133 / me=umh / subme=10 / psy=1 / psy_rd=1.00:0.15 / mixed_ref=1 / me_range=24 / chroma_me=1 / trellis=2 / 8x8dct=1 / cqm=0 / deadzone=21,11 / fast_pskip=1 / chroma_qp_offset=-3 / threads=6 / lookahead_threads=1 / sliced_threads=0 / nr=0 / decimate=1 / interlaced=0 / bluray_compat=0 / constrained_intra=0 / bframes=8 / b_pyramid=2 / b_adapt=2 / b_bias=0 / direct=3 / weightb=0 / open_gop=0 / weightp=2 / keyint=250 / keyint_min=25 / scenecut=40 / intra_refresh=0 / rc_lookahead=60 / rc=2pass / mbtree=1 / bitrate=1500 / ratetol=1.0 / qcomp=0.60 / qpmin=0 / qpmax=69 / qpstep=4 / cplxblur=20.0 / qblur=0.5 / vbv_maxrate=62500 / vbv_bufsize=78125 / nal_hrd=none / filler=0 / ip_ratio=1.40 / aq=1:1.00
Default : Да
Forced : Нет
Аудио #1
Идентификатор : 2
Формат : AC-3
Формат/Информация : Audio Coding 3
Расширение режима : CM (complete main)
Параметр Endianness формата : Big
Идентификатор кодека : A_AC3
Продолжительность : 3 м. 13 с.
Вид битрейта : Постоянный
Битрейт : 192 Кбит/сек
Каналы : 2 канала
Расположение каналов : Front: L R
Частота : 48,0 КГц
Битовая глубина : 16 бит
Метод сжатия : С потерями
Размер потока : 4,44 Мбайт (10%)
Язык : Russian
Default : Да
Forced : Нет
Аудио #2
Идентификатор : 3
Формат : AC-3
Формат/Информация : Audio Coding 3
Расширение режима : CM (complete main)
Параметр Endianness формата : Big
Идентификатор кодека : A_AC3
Продолжительность : 3 м. 13 с.
Вид битрейта : Постоянный
Битрейт : 192 Кбит/сек
Каналы : 2 канала
Расположение каналов : Front: L R
Частота : 48,0 КГц
Битовая глубина : 16 бит
Метод сжатия : С потерями
Размер потока : 4,44 Мбайт (10%)
Язык : French
Default : Нет
Forced : Нет
Текст
Идентификатор : 4
Формат : UTF-8
Идентификатор кодека : S_TEXT/UTF8
Идентификатор кодека/Информация : UTF-8 Plain Text
Язык : Russian
Default : Нет
Forced : Нет

Скриншоты

Резервные скриншоты

-[1'790]
[teatrix.ru].t19217.torrent 
Торрент: Зарегистрирован [ 2016-03-18 12:53 ] · 8891A23C4645EB64DE97CCB3F669967895432B11

Скачать .torrent

Скачать

14 KB

Статус: проверено
Скачан: 0 раз
Размер: 44 MB
terms.php



Показать сообщения:    

Текущее время: 03-Дек 20:39

Часовой пояс: UTC + 3


Вы не можете начинать темы
Вы не можете отвечать на сообщения
Вы не можете редактировать свои сообщения
Вы не можете удалять свои сообщения
Вы не можете голосовать в опросах
Вы не можете прикреплять файлы к сообщениям
Вы можете скачивать файлы