(Classical) Luigi Boccherini - Quartetti Op.26 (1778) per due fortepiani - Anna Clemente, Susanna Piolanti - 2011, FLAC (image+.cue) lossless


 

[Цитировать]

Luigi Boccherini - Quartetti Op.26 (1778) per due fortepiani - Anna Clemente, Susanna Piolanti
Жанр: Classical
Страна-производитель диска: Italy
Год издания диска: 2011
Издатель (лейбл): Tactus
Номер по каталогу: TC 740209
Дата записи: 2011
Аудиокодек: FLAC
Тип рипа: image+.cue
Битрейт аудио: lossless
Продолжительность: 64:15
Источник: собственный рип
Наличие сканов в содержимом раздачи: да
Треклист:
Luigi Boccherini (1743-1805)
Quartetti Op.26 (1778) per due fortepiani
[1]-[2] Quartetto VI
[3]-[4] Quartetto V
[5]-[6] Quartetto IV
[7]-[8] Quartetto III
[9]-[10] Quartetto II
[11]-[12] Quartetto I
Исполнители:
Anna Clemente fortepiano
Susanna Piolanti fortepiano

Лог создания рипа

Exact Audio Copy V1.0 beta 3 from 29. August 2011
EAC extraction logfile from 2. October 2014, 1:18
Anna Clemente, Susanna Piolanti / Boccherini - Quartetti Op.26
Used drive : HL-DT-STDVDRAM GU70N Adapter: 0 ID: 0
Read mode : Secure
Utilize accurate stream : Yes
Defeat audio cache : Yes
Make use of C2 pointers : No
Read offset correction : 48
Overread into Lead-In and Lead-Out : No
Fill up missing offset samples with silence : Yes
Delete leading and trailing silent blocks : No
Null samples used in CRC calculations : Yes
Used interface : Native Win32 interface for Win NT & 2000
Used output format : User Defined Encoder
Selected bitrate : 128 kBit/s
Quality : High
Add ID3 tag : No
Command line compressor : C:\Program Files (x86)\Exact Audio Copy\Flac\flac.exe
Additional command line options : -V -8 -T "Date=%year%" -T "Genre=%genre%" %source%
TOC of the extracted CD
Track | Start | Length | Start sector | End sector
---------------------------------------------------------
1 | 0:00.00 | 6:36.41 | 0 | 29740
2 | 6:36.41 | 4:35.04 | 29741 | 50369
3 | 11:11.45 | 7:41.68 | 50370 | 85012
4 | 18:53.38 | 3:46.30 | 85013 | 101992
5 | 22:39.68 | 6:08.45 | 101993 | 129637
6 | 28:48.38 | 3:57.07 | 129638 | 147419
7 | 32:45.45 | 7:54.22 | 147420 | 182991
8 | 40:39.67 | 3:14.48 | 182992 | 197589
9 | 43:54.40 | 5:53.03 | 197590 | 224067
10 | 49:47.43 | 3:32.64 | 224068 | 240031
11 | 53:20.32 | 6:44.27 | 240032 | 270358
12 | 60:04.59 | 4:15.40 | 270359 | 289523
Range status and errors
Selected range
Filename C:\temp\Boccherini - Quartetti Op.26 per due fortepiani\Boccherini - Quartetti Op.26.wav
Peak level 100.0 %
Extraction speed 2.1 X
Range quality 100.0 %
Test CRC 29B80947
Copy CRC 29B80947
Copy OK
No errors occurred
AccurateRip summary
Track 1 accurately ripped (confidence 1) [E22320EE] (AR v2)
Track 2 accurately ripped (confidence 1) [9118D18C] (AR v2)
Track 3 accurately ripped (confidence 1) [42EE123E] (AR v2)
Track 4 accurately ripped (confidence 1) [C8C0A105] (AR v2)
Track 5 accurately ripped (confidence 1) [1689A8E0] (AR v2)
Track 6 accurately ripped (confidence 1) [975FCFA8] (AR v2)
Track 7 accurately ripped (confidence 1) [4136E971] (AR v2)
Track 8 accurately ripped (confidence 1) [845277BE] (AR v2)
Track 9 accurately ripped (confidence 1) [FEACF5AA] (AR v2)
Track 10 accurately ripped (confidence 1) [5FF91B16] (AR v2)
Track 11 accurately ripped (confidence 1) [2B257312] (AR v2)
Track 12 accurately ripped (confidence 1) [6B8FCE9A] (AR v2)
All tracks accurately ripped
End of status report
==== Log checksum 532E4B6BF4438703430DD7636DACD26C5BA485463464C14CC93EE83F8AD4FF09 ====



Показать сообщения:    

Текущее время: 10-Дек 19:38

Часовой пояс: UTC + 3


Вы не можете начинать темы
Вы не можете отвечать на сообщения
Вы не можете редактировать свои сообщения
Вы не можете удалять свои сообщения
Вы не можете голосовать в опросах
Вы не можете прикреплять файлы к сообщениям
Вы не можете скачивать файлы