(Classical) Einar Englund - Piano Quintet; String Quartet - Sinfonia Lahti Chamber Ensemble, Peter Lonnqvist - 2004, FLAC (image+.cue) lossless


 

[Цитировать]

Einar Englund - Piano Quintet; String Quartet - Sinfonia Lahti Chamber Ensemble, Peter Lönnqvist
Жанр: Classical
Страна-производитель диска: Sweden
Год издания диска: 2004
Издатель (лейбл): BIS
Номер по каталогу: BIS-CD-1197
Дата записи: 2000, 2002
Аудиокодек: FLAC
Тип рипа: image+.cue
Битрейт аудио: lossless
Продолжительность: 54:37
Источник: собственный рип
Наличие сканов в содержимом раздачи: да
Треклист:
Einar Englund (1916-1999)
[1]-[4] Piano Quintet (1941)
[5]-[8] String Quartet (1985-86)
Исполнители:
Sinfonia Lahti Chamber Ensemble
Peter Lönnqvist
piano

Лог создания рипа

Exact Audio Copy V1.0 beta 3 from 29. August 2011
EAC extraction logfile from 30. July 2014, 17:07
Sinfonia Lahti Chamber Ensemble, Peter Lönnqvist / Englund - Piano Quintet; String Quartet
Used drive : HL-DT-STDVDRRW GWA-4164B Adapter: 5 ID: 0
Read mode : Secure
Utilize accurate stream : Yes
Defeat audio cache : Yes
Make use of C2 pointers : No
Read offset correction : 102
Overread into Lead-In and Lead-Out : No
Fill up missing offset samples with silence : Yes
Delete leading and trailing silent blocks : No
Null samples used in CRC calculations : Yes
Used interface : Native Win32 interface for Win NT & 2000
Used output format : User Defined Encoder
Selected bitrate : 896 kBit/s
Quality : High
Add ID3 tag : No
Command line compressor : C:\Program Files\Exact Audio Copy\FLAC\FLAC.EXE
Additional command line options : -V -8 %source%
TOC of the extracted CD
Track | Start | Length | Start sector | End sector
---------------------------------------------------------
1 | 0:00.00 | 7:35.57 | 0 | 34181
2 | 7:35.57 | 4:22.20 | 34182 | 53851
3 | 11:58.02 | 8:57.18 | 53852 | 94144
4 | 20:55.20 | 7:26.20 | 94145 | 127614
5 | 28:21.40 | 7:09.02 | 127615 | 159791
6 | 35:30.42 | 4:12.33 | 159792 | 178724
7 | 39:43.00 | 7:55.00 | 178725 | 214349
8 | 47:38.00 | 7:00.07 | 214350 | 245856
Range status and errors
Selected range
Filename D:\temp\Music\BIS-CD-1197 - Englund - Piano Quintet; String Quartet\Englund - Piano Quintet; String Quartet.wav
Peak level 99.9 %
Extraction speed 2.6 X
Range quality 100.0 %
Test CRC 6C4E184F
Copy CRC 6C4E184F
Copy OK
No errors occurred
AccurateRip summary
Track 1 accurately ripped (confidence 1) [EC7FE439] (AR v1)
Track 2 accurately ripped (confidence 1) [9A6AD39C] (AR v1)
Track 3 accurately ripped (confidence 1) [F4E03AAE] (AR v1)
Track 4 accurately ripped (confidence 1) [02079D51] (AR v1)
Track 5 accurately ripped (confidence 1) [12FF31FE] (AR v1)
Track 6 accurately ripped (confidence 1) [D30A884E] (AR v1)
Track 7 accurately ripped (confidence 1) [70C50B81] (AR v1)
Track 8 accurately ripped (confidence 1) [4FE2EC65] (AR v1)
All tracks accurately ripped
End of status report
==== Log checksum 4E0FCDDDB45D83A9A9B1472A6C74F528B5BFCEB72A7BA6C5689A87B09E289D84 ====



Показать сообщения:    

Текущее время: 11-Дек 09:08

Часовой пояс: UTC + 3


Вы не можете начинать темы
Вы не можете отвечать на сообщения
Вы не можете редактировать свои сообщения
Вы не можете удалять свои сообщения
Вы не можете голосовать в опросах
Вы не можете прикреплять файлы к сообщениям
Вы не можете скачивать файлы