(Opera) Римский-Корсаков - Псковитянка (Борис Христов) / Rimsky-korsakov - Ivan Il Terrible (Christoff, Bakocevic, Kozma, Susca - Orchestre del Teatro Verdi di Trieste, Hubad) - 2003, APE (image+.cue) lossless


 

[Цитировать]

Nikolai Rimsky-Korsakov - Ivan Il Terribile (The Maid of Pskov)
Жанр: Opera
Страна-производитель диска: Portugal
Год издания диска: 2003
Издатель (лейбл): Gala
Номер по каталогу: GL 100.739
Дата записи: 1968
Аудиокодек: APE
Тип рипа: image+.cue
Битрейт аудио: lossless
Продолжительность: 72'14+67'08
Источник: собственный рип
Наличие сканов в содержимом раздачи: да
Треклист:
Треклист:

CD1

1. Act 1. Overture
2. Act 1. Scene 1. Sono qua!... Siamo qua!
3. Act 1. Scene 1. Ma dimmi un poco, buona Vlasyev
4. Act 1. Scene 1. Storia del magnifico cavaliere
5. Act 1. Scene 1. Ah! Chi mai fischiato ha là?
6. Act 1. Scene 1. A che mai nell'ombra canti tu
7. Act 1. Scene 1. Amato ben, vuoi dunque la mia m
8. Act 1. Scene 1. Nobil bojardo vien... Mio padre
9. Act 1. Scene 2. Campane a stormo! Chi ne spiegh
10. Act 1. Scene 2. Di Nowgorod, sorella a te maggi
11. Act 1. Scene 2. Io fui, per suo volere, a guard
12. Act 1. Scene 2. Libera Pskoff, il miglior pan p
13. Act 1. Scene 2. Or, principe, m'ascolta ben: da
14. Act 2. Scene 1. Il terribile Ivan s'avanza, è s
15. Act 2. Scene 1. Ahimé del padre ignorerò e nome
16. Act 2. Scene 1. Ohibò! Che voglion dir le tue p
17. Act 2. Scene 1. Son le campane a festa! I gonfa

CD2

1. Act 2. Scene 2. Entrar? O no!... Zar, qui tu se
2. Act 2. Scene 2. Orsù, tuo padre ti permette di
3. Act 2. Scene 2. Principessa, deh vien, senza te
4. Act 3. Scene 1. Musical interlude. A Forest, the Tsar's Hunt, a Storm
5. Act 3. Scene 1. Ahimè! Che far? Proceder più no
6. Act 3. Scene 1. Per il sogno dei cuori nostri,
7. Act 3. Scene 1. Ah! Se nel pensier ti sto e nel
8. Act 3. Scene 1. Ecco, là! In colloquio con l'am
9. Act 3. Scene 2. Si, ho perdonado Pskoff, ma la
10. Act 3. Scene 2. Ah! Tormento atroce!... Dove se
11. Act 3. Scene 2. Salute, Olga, figlia mia... no,
12. Act 3. Scene 2. Al pianto mio, al grido di dolore
13. Act 3. Scene 2. Confessa dunque francamente chi
14. Act 3. Scene 2. Io nulla ho da ridir... non so
15. Act 3. Scene 2. Ahi! Misera! Chiamata il mio do
Исполнители:
Nikolai Rimsky-Korsakov - Ivan Il Terribile (The Maid of Pskov)
Opera in 3 acts
Libretto Nikolai Rimsky-Korsakov after Lev A. Mey
Ivan the rerrible - Boris Christoff (Bass)
Princess Olga - Radmila Bakocevic (Soprano)
Vlasyevna - Lajos Kozma (Tenor),
Yushko Velebin - Vito Susca (Baritone)
Vlasyevna - Genia Las (Alto)
Perfilyevna - Bruna Ronchini (Mezzo Soprano)
Boyar Stepanida - Daniela Mazzucato-Meneghini (Soprano)
Prince Afanasy - Enzo Viaro (Bass)
Coro del Teatro Verdi di Trieste
Orchestre del Teatro Verdi di Trieste
Conductor: Samo Hubad
Sung in Italian

Лог создания рипа

CD1

Exact Audio Copy V1.0 beta 3 from 29. August 2011
EAC extraction logfile from 4. October 2014, 12:13
Rimsky-Korsakov / Ivan il terribile, Hubad CD1
Used drive : TS8XDVDSTRANSCEND Adapter: 1 ID: 1
Read mode : Secure
Utilize accurate stream : Yes
Defeat audio cache : Yes
Make use of C2 pointers : No
Read offset correction : 6
Overread into Lead-In and Lead-Out : No
Fill up missing offset samples with silence : Yes
Delete leading and trailing silent blocks : No
Null samples used in CRC calculations : Yes
Used interface : Native Win32 interface for Win NT & 2000
Used output format : Monkey's Audio Lossless Encoder
Selected bitrate : High Lossless Compression
Quality : High
Add ID3 tag : Yes
Command line compressor : C:\Program Files (x86)\Exact Audio Copy\MAC\MAC.exe
TOC of the extracted CD
Track | Start | Length | Start sector | End sector
---------------------------------------------------------
1 | 0:00.00 | 7:42.61 | 0 | 34710
2 | 7:42.61 | 3:51.74 | 34711 | 52109
3 | 11:34.60 | 4:53.49 | 52110 | 74133
4 | 16:28.34 | 2:46.23 | 74134 | 86606
5 | 19:14.57 | 1:06.71 | 86607 | 91627
6 | 20:21.53 | 3:34.60 | 91628 | 107737
7 | 23:56.38 | 6:26.46 | 107738 | 136733
8 | 30:23.09 | 6:22.49 | 136734 | 165432
9 | 36:45.58 | 4:07.01 | 165433 | 183958
10 | 40:52.59 | 3:50.59 | 183959 | 201267
11 | 44:43.43 | 3:00.41 | 201268 | 214808
12 | 47:44.09 | 4:42.74 | 214809 | 236032
13 | 52:27.08 | 4:07.38 | 236033 | 254595
14 | 56:34.46 | 5:21.06 | 254596 | 278676
15 | 61:55.52 | 3:41.00 | 278677 | 295251
16 | 65:36.52 | 2:48.58 | 295252 | 307909
17 | 68:25.35 | 3:47.07 | 307910 | 324941
Range status and errors
Selected range
Filename D:\EAC\Rimsky-Korsakov - Ivan il terribile, Hubad CD1.wav
Peak level 98.0 %
Extraction speed 3.4 X
Range quality 100.0 %
Test CRC 71EBD435
Copy CRC 71EBD435
Copy OK
No errors occurred
AccurateRip summary
Track 1 accurately ripped (confidence 2) [10ED52C3] (AR v1)
Track 2 accurately ripped (confidence 2) [176F1E7E] (AR v1)
Track 3 accurately ripped (confidence 2) [49A020F2] (AR v1)
Track 4 accurately ripped (confidence 2) [37A6A8BF] (AR v1)
Track 5 accurately ripped (confidence 2) [5483900B] (AR v1)
Track 6 accurately ripped (confidence 2) [F85459D7] (AR v1)
Track 7 accurately ripped (confidence 2) [0FEE972A] (AR v1)
Track 8 accurately ripped (confidence 2) [AC6B2146] (AR v1)
Track 9 accurately ripped (confidence 2) [DC2AD2A0] (AR v1)
Track 10 accurately ripped (confidence 2) [0DB39D7A] (AR v1)
Track 11 accurately ripped (confidence 2) [339F965B] (AR v1)
Track 12 accurately ripped (confidence 2) [DA8EE8D0] (AR v1)
Track 13 accurately ripped (confidence 2) [28376FD5] (AR v1)
Track 14 accurately ripped (confidence 2) [68798296] (AR v1)
Track 15 accurately ripped (confidence 2) [FEBBEF46] (AR v1)
Track 16 accurately ripped (confidence 2) [0F875791] (AR v1)
Track 17 accurately ripped (confidence 2) [0D00B5F9] (AR v1)
All tracks accurately ripped
End of status report
---- CUETools DB Plugin V2.1.3
[CTDB TOCID: Z5GoRtwduYv5Y3kURL4GffIOoJg-] disk not present in database, Submit result: unrecognized or virtual drive
==== Log checksum 5C166B010E879E25095489F8109F3D48A6EA2624D8B190D13833C06EFBFF1F90 ====

CD2

Exact Audio Copy V1.0 beta 3 from 29. August 2011
EAC extraction logfile from 4. October 2014, 11:57
Rimsky-Korsakov / Ivan il terribile, Hubad CD2
Used drive : TSSTcorpCDDVDW SE-208AB Adapter: 1 ID: 0
Read mode : Secure
Utilize accurate stream : Yes
Defeat audio cache : Yes
Make use of C2 pointers : No
Read offset correction : 6
Overread into Lead-In and Lead-Out : No
Fill up missing offset samples with silence : Yes
Delete leading and trailing silent blocks : No
Null samples used in CRC calculations : Yes
Used interface : Native Win32 interface for Win NT & 2000
Used output format : Monkey's Audio Lossless Encoder
Selected bitrate : High Lossless Compression
Quality : High
Add ID3 tag : Yes
Command line compressor : C:\Program Files (x86)\Exact Audio Copy\MAC\MAC.exe
TOC of the extracted CD
Track | Start | Length | Start sector | End sector
---------------------------------------------------------
1 | 0:00.00 | 9:18.68 | 0 | 41917
2 | 9:18.68 | 5:45.08 | 41918 | 67800
3 | 15:04.01 | 4:37.07 | 67801 | 88582
4 | 19:41.08 | 6:35.69 | 88583 | 118276
5 | 26:17.02 | 4:30.28 | 118277 | 138554
6 | 30:47.30 | 2:00.60 | 138555 | 147614
7 | 32:48.15 | 2:26.60 | 147615 | 158624
8 | 35:15.00 | 2:04.32 | 158625 | 167956
9 | 37:19.32 | 5:15.70 | 167957 | 191651
10 | 42:35.27 | 2:47.40 | 191652 | 204216
11 | 45:22.67 | 4:25.33 | 204217 | 224124
12 | 49:48.25 | 3:37.38 | 224125 | 240437
13 | 53:25.63 | 2:58.47 | 240438 | 253834
14 | 56:24.35 | 4:45.14 | 253835 | 275223
15 | 61:09.49 | 5:56.35 | 275224 | 301958
Range status and errors
Selected range
Filename D:\EAC\Rimsky-Korsakov - Ivan il terribile, Hubad CD2.wav
Peak level 81.6 %
Extraction speed 5.0 X
Range quality 100.0 %
Test CRC 536EF745
Copy CRC 536EF745
Copy OK
No errors occurred
AccurateRip summary
Track 1 accurately ripped (confidence 2) [6060D98A] (AR v1)
Track 2 accurately ripped (confidence 2) [4CEC4D42] (AR v1)
Track 3 accurately ripped (confidence 2) [B6330CA8] (AR v1)
Track 4 accurately ripped (confidence 1) [2067DA8C] (AR v1)
Track 5 accurately ripped (confidence 2) [5B87B3B7] (AR v1)
Track 6 accurately ripped (confidence 2) [51DFD186] (AR v1)
Track 7 accurately ripped (confidence 2) [F76D99C0] (AR v1)
Track 8 accurately ripped (confidence 2) [AE027F46] (AR v1)
Track 9 accurately ripped (confidence 2) [FAB0B2FD] (AR v1)
Track 10 accurately ripped (confidence 2) [4795CC57] (AR v1)
Track 11 accurately ripped (confidence 2) [43E93615] (AR v1)
Track 12 accurately ripped (confidence 2) [7267DD33] (AR v1)
Track 13 accurately ripped (confidence 2) [A32669C1] (AR v1)
Track 14 accurately ripped (confidence 2) [EB83E0D3] (AR v1)
Track 15 accurately ripped (confidence 2) [7C7BB425] (AR v1)
All tracks accurately ripped
End of status report
---- CUETools DB Plugin V2.1.3
[CTDB TOCID: 7mYHx7p3z214vWnRh6.Ay5DahiE-] disk not present in database, Submit result: 7mYHx7p3z214vWnRh6.Ay5DahiE- has been uploaded
==== Log checksum DD2DF867C67788740444575B922368FFC7DF908EEF0DD9F1BC9532F24A93F1B6 ====

Содержание индексной карты (.CUE)

CD1

REM GENRE Opera
REM DATE 1968
REM DISCID 0D10EC11
REM COMMENT "ExactAudioCopy v1.0b3"
PERFORMER "Rimsky-Korsakov"
TITLE "Ivan il terribile, Hubad CD1"
FILE "Rimsky-Korsakov - Ivan il terribile, Hubad CD1.ape" WAVE
TRACK 01 AUDIO
TITLE "Act 1. Overture"
PERFORMER "Rimsky-Korsakov"
INDEX 01 00:00:00
TRACK 02 AUDIO
TITLE "Act 1. Scene 1. Sono qua!... Siamo qua!"
PERFORMER "Rimsky-Korsakov"
INDEX 01 07:42:61
TRACK 03 AUDIO
TITLE "Act 1. Scene 1. Ma dimmi un poco, buona Vlasyeva"
PERFORMER "Rimsky-Korsakov"
INDEX 01 11:34:60
TRACK 04 AUDIO
TITLE "Act 1. Scene 1. Storia del magnifico cavaliere Garine"
PERFORMER "Rimsky-Korsakov"
INDEX 01 16:28:34
TRACK 05 AUDIO
TITLE "Act 1. Scene 1. Ah! Chi mai fischiato ha là?"
PERFORMER "Rimsky-Korsakov"
INDEX 01 19:14:57
TRACK 06 AUDIO
TITLE "Act 1. Scene 1. A che mai nell'ombra canti tu"
PERFORMER "Rimsky-Korsakov"
INDEX 01 20:21:53
TRACK 07 AUDIO
TITLE "Act 1. Scene 1. Amato ben, vuoi dunque la mia morte?"
PERFORMER "Rimsky-Korsakov"
INDEX 01 23:56:38
TRACK 08 AUDIO
TITLE "Act 1. Scene 1. Nobil bojardo vien... Mio padre, oh ciel!"
PERFORMER "Rimsky-Korsakov"
INDEX 01 30:23:09
TRACK 09 AUDIO
TITLE "Act 1. Scene 2. Campane a stormo! Chi ne spiegherà la ragione!"
PERFORMER "Rimsky-Korsakov"
INDEX 01 36:45:58
TRACK 10 AUDIO
TITLE "Act 1. Scene 2. Di Nowgorod, sorella a te maggior"
PERFORMER "Rimsky-Korsakov"
INDEX 01 40:52:59
TRACK 11 AUDIO
TITLE "Act 1. Scene 2. Io fui, per suo volere, a guardia posta dei dirtti"
PERFORMER "Rimsky-Korsakov"
INDEX 01 44:43:43
TRACK 12 AUDIO
TITLE "Act 1. Scene 2. Libera Pskoff, il miglior pan prepara e versa l'idromele Listen"
PERFORMER "Rimsky-Korsakov"
INDEX 01 47:44:09
TRACK 13 AUDIO
TITLE "Act 1. Scene 2. Or, principe, m'ascolta ben: da te congredo noi prendiam"
PERFORMER "Rimsky-Korsakov"
INDEX 01 52:27:08
TRACK 14 AUDIO
TITLE "Act 2. Scene 1. Il terribile Ivan s'avanza, è svanita ormai la speranza!"
PERFORMER "Rimsky-Korsakov"
INDEX 01 56:34:46
TRACK 15 AUDIO
TITLE "Act 2. Scene 1. Ahimé del padre ignorerò e nome e sorte?"
PERFORMER "Rimsky-Korsakov"
INDEX 01 61:55:52
TRACK 16 AUDIO
TITLE "Act 2. Scene 1. Ohibò! Che voglion dir le tue parole?"
PERFORMER "Rimsky-Korsakov"
INDEX 01 65:36:52
TRACK 17 AUDIO
TITLE "Act 2. Scene 1. Son le campane a festa! I gonfalone escono dalla Chiesa!"
PERFORMER "Rimsky-Korsakov"
INDEX 01 68:25:35

CD2

REM GENRE Opera
REM DATE 1968
REM DISCID E10FBA0F
REM COMMENT "ExactAudioCopy v1.0b3"
PERFORMER "Rimsky-Korsakov"
TITLE "Ivan il terribile, Hubad CD2"
FILE "Rimsky-Korsakov - Ivan il terribile, Hubad CD2.ape" WAVE
TRACK 01 AUDIO
TITLE "Act 2. Scene 2. Entrar? O no!... Zar, qui tu se"
PERFORMER "Rimsky-Korsakov"
INDEX 01 00:00:00
TRACK 02 AUDIO
TITLE "Act 2. Scene 2. Orsù, tuo padre ti permette di"
PERFORMER "Rimsky-Korsakov"
INDEX 01 09:18:68
TRACK 03 AUDIO
TITLE "Act 2. Scene 2. Principessa, deh vien, senza te"
PERFORMER "Rimsky-Korsakov"
INDEX 01 15:04:01
TRACK 04 AUDIO
TITLE "Act 3. Scene 1. Musical interlude. A Forest, the Tsar's Hunt, a Storm"
PERFORMER "Rimsky-Korsakov"
INDEX 01 19:41:08
TRACK 05 AUDIO
TITLE "Act 3. Scene 1. Ahimè! Che far? Proceder più no"
PERFORMER "Rimsky-Korsakov"
INDEX 01 26:17:02
TRACK 06 AUDIO
TITLE "Act 3. Scene 1. Per il sogno dei cuori nostri,"
PERFORMER "Rimsky-Korsakov"
INDEX 01 30:47:30
TRACK 07 AUDIO
TITLE "Act 3. Scene 1. Ah! Se nel pensier ti sto e nel"
PERFORMER "Rimsky-Korsakov"
INDEX 01 32:48:15
TRACK 08 AUDIO
TITLE "Act 3. Scene 1. Ecco, là! In colloquio con l'am"
PERFORMER "Rimsky-Korsakov"
INDEX 01 35:15:00
TRACK 09 AUDIO
TITLE "Act 3. Scene 2. Si, ho perdonado Pskoff, ma la"
PERFORMER "Rimsky-Korsakov"
INDEX 01 37:19:32
TRACK 10 AUDIO
TITLE "Act 3. Scene 2. Ah! Tormento atroce!... Dove se"
PERFORMER "Rimsky-Korsakov"
INDEX 01 42:35:27
TRACK 11 AUDIO
TITLE "Act 3. Scene 2. Salute, Olga, figlia mia... no,"
PERFORMER "Rimsky-Korsakov"
INDEX 01 45:22:67
TRACK 12 AUDIO
TITLE "Act 3. Scene 2. Al pianto mio, al grido di dolore"
PERFORMER "Rimsky-Korsakov"
INDEX 01 49:48:25
TRACK 13 AUDIO
TITLE "Act 3. Scene 2. Confessa dunque francamente chi"
PERFORMER "Rimsky-Korsakov"
INDEX 01 53:25:63
TRACK 14 AUDIO
TITLE "Act 3. Scene 2. Io nulla ho da ridir... non so"
PERFORMER "Rimsky-Korsakov"
INDEX 01 56:24:35
TRACK 15 AUDIO
TITLE "Act 3. Scene 2. Ahi! Misera! Chiamata il mio do"
PERFORMER "Rimsky-Korsakov"
INDEX 01 61:09:49



Показать сообщения:    

Текущее время: 05-Дек 11:30

Часовой пояс: UTC + 3


Вы не можете начинать темы
Вы не можете отвечать на сообщения
Вы не можете редактировать свои сообщения
Вы не можете удалять свои сообщения
Вы не можете голосовать в опросах
Вы не можете прикреплять файлы к сообщениям
Вы не можете скачивать файлы