Маскарад (Римас Туминас) [2011, драма, DVB, AVC] Государственный академический театр им. Евг. Вахтангова


 

[Цитировать]

Маскарад
10.10.14 торрент обновлён, добавлено 2 действие
Название театра: Государственный академический театр им. Евг. Вахтангова
Жанр: драма
Год выпуска: 2010, 2014
Продолжительность: 01:32:53 + 00:39:55
Режиссёр: Римас Туминас
В ролях: Евгений Князев, Мария Волкова, Леонид Бичевин, Александр Павлов, Лидия Вележева, Юрий Шлыков и другие
Описание: По одноименной драме Михаила Лермонтова. Беспощадная правда о жестоком мире, где нравственность ходит по острию ножа, где злословят, шутят, морочат, оставаясь неузнанными - свобода от всех и самого себя, это театр характеров, интриг, флирта, жарких признаний и опасных откровений.
Доп. информация:
Запись потока *.ts со спутника ABS-2, 75° в.д., ремукс в *.mkv программой VideoReDo.
Качество видео: DVB
Формат видео: MKV
Видео: Advanced Video Codec, 720(768)x576 (4:3), 25,000 кадров/сек, 3087 Кбит/сек
Аудио: MPEG Audio, 48,0 КГц, 192 Кбит/сек, 2 канала
Семпл: http://multi-up.com/1005211

MediaInfo

Общее
Уникальный идентификатор : 43836600287811573264859685263892844912 (0x20FA9F42F52A34D99A262ECC63389170)
Полное имя : E:\Torrent\МАСКАРАД\МАСКАРАД 1 (КУЛЬТУРА 75).mkv
Формат : Matroska
Версия формата : Version 2
Размер файла : 2,17 Гбайт
Продолжительность : 1 ч. 32 м.
Общий поток : 3345 Кбит/сек
Программа кодирования : Lavf52.64.2
Библиотека кодирования : Lavf52.64.2
Видео
Идентификатор : 1
Формат : AVC
Формат/Информация : Advanced Video Codec
Профиль формата : High@L3.0
Параметр CABAC формата : Да
Параметр ReFrames формата : 4 кадра
Идентификатор кодека : V_MPEG4/ISO/AVC
Продолжительность : 1 ч. 32 м.
Битрейт : 3086 Кбит/сек
Ширина : 720 пикселей
Высота : 576 пикселей
Соотношение сторон : 4:3
Соотношение сторон в оригинале : 4:3
Режим частоты кадров : Постоянный
Частота кадров : 25,000 кадров/сек
Стандарт вещания : PAL
Цветовое пространство : YUV
Субдискретизация насыщенности : 4:2:0
Битовая глубина : 8 бит
Тип развёртки : MBAFF
Бит/(Пиксели*Кадры) : 0.298
Размер потока : 2,00 Гбайт (92%)
Default : Да
Forced : Нет
Аудио
Идентификатор : 2
Формат : MPEG Audio
Версия формата : Version 1
Профиль формата : Layer 2
Идентификатор кодека : A_MPEG/L2
Идентификатор кодека/Подсказка : MP2
Продолжительность : 1 ч. 32 м.
Вид битрейта : Постоянный
Битрейт : 192 Кбит/сек
Каналы : 2 канала
Частота : 48,0 КГц
Метод сжатия : С потерями
Размер потока : 128 Мбайт (6%)
Язык : English
Default : Да
Forced : Нет
Общее
Уникальный идентификатор : 223975450790643332333907461980783572589 (0xA8801A4DBA54DBB9121EECC45B5AF66D)
Полное имя : E:\Torrent\МАСКАРАД\МАСКАРАД 2 (КУЛЬТУРА 75).mkv
Формат : Matroska
Версия формата : Version 2
Размер файла : 955 Мбайт
Продолжительность : 39 м.
Общий поток : 3343 Кбит/сек
Программа кодирования : Lavf52.64.2
Библиотека кодирования : Lavf52.64.2
Видео
Идентификатор : 1
Формат : AVC
Формат/Информация : Advanced Video Codec
Профиль формата : High@L3.0
Параметр CABAC формата : Да
Параметр ReFrames формата : 4 кадра
Идентификатор кодека : V_MPEG4/ISO/AVC
Продолжительность : 39 м.
Битрейт : 3085 Кбит/сек
Ширина : 720 пикселей
Высота : 576 пикселей
Соотношение сторон : 4:3
Соотношение сторон в оригинале : 4:3
Режим частоты кадров : Постоянный
Частота кадров : 25,000 кадров/сек
Стандарт вещания : PAL
Цветовое пространство : YUV
Субдискретизация насыщенности : 4:2:0
Битовая глубина : 8 бит
Тип развёртки : MBAFF
Бит/(Пиксели*Кадры) : 0.298
Размер потока : 881 Мбайт (92%)
Default : Да
Forced : Нет
Аудио
Идентификатор : 2
Формат : MPEG Audio
Версия формата : Version 1
Профиль формата : Layer 2
Режим : Joint stereo
Расширение режима : Intensity Stereo + MS Stereo
Идентификатор кодека : A_MPEG/L2
Идентификатор кодека/Подсказка : MP2
Продолжительность : 39 м.
Вид битрейта : Постоянный
Битрейт : 192 Кбит/сек
Каналы : 2 канала
Частота : 48,0 КГц
Метод сжатия : С потерями
Размер потока : 54,8 Мбайт (6%)
Язык : English
Default : Да
Forced : Нет

Скриншот с названием постановки




Показать сообщения:    

Текущее время: 03-Дек 07:41

Часовой пояс: UTC + 3


Вы не можете начинать темы
Вы не можете отвечать на сообщения
Вы не можете редактировать свои сообщения
Вы не можете удалять свои сообщения
Вы не можете голосовать в опросах
Вы не можете прикреплять файлы к сообщениям
Вы не можете скачивать файлы