(Classical) Добжиньский – Камерная музыка с фортепиано: диск I / Dobrzynski – Chamber Works with piano I (Les Explorateurs: Lawrynowicz, Orlik, Tudzierz, Stec) - 2013, FLAC (image+.cue) lossless


 

[Цитировать]

Добжиньский – Камерная музыка с фортепиано: диск I / Dobrzyński – Chamber Works with piano I (Les Explorateurs: Ławrynowicz, Orlik, Tudzierz, Stec)
Жанр: Classical
Страна-производитель диска: Польша
Год издания диска: 2013
Издатель (лейбл): Acte Préalable
Номер по каталогу: AP0278
Дата записи: Варшава:
13 — 14 октября 2012 г. (1 — 4, 7);
23 — 24 февраля 2013 г. (5 — 7).
Аудиокодек: FLAC
Тип рипа: image+.cue
Битрейт аудио: lossless
Продолжительность: 01:15:01
Источник: odeonmusic
Наличие сканов в содержимом раздачи: да
Треклист:
Игнаций Феликс Добжиньский (1807 — 1867).
Сочинения для камерного ансамбля с фортепиано.
Cd 1.
Большое трио a-moll для скрипки, виолончели и фортепиано, op. 17 (1831?).
01. I. Allegro moderato [16:09].
02. II. Scherzo [06:53].
03. III. Adagio fantastico [11:27].
04. IV. Rondo [11:01].
«Воспоминание о Дрездене» G-dur для гобоя, виолончели и фортепиано, op. 47 (1846).
05. Andantino espressivo. — Allegretto risoluto. — [Tempo I.] – [Кода] [08:20].
«Слезы» (Les larmes) e-moll для виолончели с фортепиано, op. 41 (1843).
06. Andantino doloroso e molto espressivo [06:18].
Интродукция и несложные вариации F-dur на тему известного мазура [«Trzeci maj» — «Третье мая»] для флейты с фортепиано, op. 18 (1831), оригинальное переложение для скрипки с фортепиано.
07. Вступление. — Тема. — Вариации I — V. — Finale [14:50].
Исполнители:
Les Explorateurs:
Joanna Ławrynowicz (фортепиано),
Anna Orlik (скрипка),
Łukasz Tudzierz (виолончель);
Grzegorz Stec (гобой).

Лог создания рипа

Exact Audio Copy V1.0 beta 3 from 29. August 2011
EAC extraction logfile from 30. November 2013, 10:03
Les Explorateurs / Ignacy Feliks Dobrzynski - Chamber Works with Piano (Vol.1) - Les Explorateurs
Used drive : TSSTcorpCDDVDW SH-222BB Adapter: 2 ID: 1
Read mode : Secure
Utilize accurate stream : Yes
Defeat audio cache : Yes
Make use of C2 pointers : No
Read offset correction : 6
Overread into Lead-In and Lead-Out : No
Fill up missing offset samples with silence : Yes
Delete leading and trailing silent blocks : No
Null samples used in CRC calculations : Yes
Used interface : Native Win32 interface for Win NT & 2000
Used output format : User Defined Encoder
Selected bitrate : 1024 kBit/s
Quality : High
Add ID3 tag : No
Command line compressor : C:\Program Files\Exact Audio Copy\Flac\flac.exe
Additional command line options : -8 -V -T "TITLE=%title%" -T "ARTIST=%artist%" -T "ALBUMARTIST=%albumartist%" -T "ALBUM=%albumtitle%" -T "DATE=%year%" -T "TRACKNUMBER=%tracknr%" -T "TRACKTOTAL=%numtracks%" -T "GENRE=%genre%" -T "COMMENT=%comment%" -T "PERFORMER=%albuminterpret%" -T "COMPOSER=%composer%" %source% -o %dest%
TOC of the extracted CD
Track | Start | Length | Start sector | End sector
---------------------------------------------------------
1 | 0:00.00 | 16:09.27 | 0 | 72701
2 | 16:09.27 | 6:53.12 | 72702 | 103688
3 | 23:02.39 | 11:27.58 | 103689 | 155271
4 | 34:30.22 | 11:01.37 | 155272 | 204883
5 | 45:31.59 | 8:20.53 | 204884 | 242436
6 | 53:52.37 | 6:18.13 | 242437 | 270799
7 | 60:10.50 | 14:50.57 | 270800 | 337606
Range status and errors
Selected range
Filename G:\Ripped general\[8325] Ignacy Feliks Dobrzynski – Chamber Works with Piano (Vol.1) – Les Explorateurs\Ignacy Feliks Dobrzynski - Chamber Works with Piano (Vol.1) - Les Explorateurs.wav
Peak level 97.1 %
Extraction speed 7.7 X
Range quality 100.0 %
Test CRC C26287AD
Copy CRC C26287AD
Copy OK
No errors occurred
AccurateRip summary
Track 1 not present in database
Track 2 not present in database
Track 3 not present in database
Track 4 not present in database
Track 5 not present in database
Track 6 not present in database
Track 7 not present in database
None of the tracks are present in the AccurateRip database
End of status report

Содержание индексной карты (.CUE)

REM GENRE Classical
REM DISCID 55119507
REM COMMENT "ExactAudioCopy v1.0b3"
PERFORMER "Les Explorateurs"
TITLE "Dobrzynski – Chamber Works with Piano – Cd 1"
FILE "Dobrzynski – Chamber Works with Piano – Cd 1.flac" WAVE
TRACK 01 AUDIO
TITLE "Piano Trio in A minor, Op. 17 - I. Allegro moderato"
PERFORMER "Les Explorateurs"
INDEX 01 00:00:00
TRACK 02 AUDIO
TITLE "Piano Trio in A minor, Op. 17 - II. Scherzo"
PERFORMER "Les Explorateurs"
INDEX 01 16:09:27
TRACK 03 AUDIO
TITLE "Piano Trio in A minor, Op. 17 - III. Adagio fantastico"
PERFORMER "Les Explorateurs"
INDEX 01 23:02:39
TRACK 04 AUDIO
TITLE "Piano Trio in A minor, Op. 17 - IV. Rondo"
PERFORMER "Les Explorateurs"
INDEX 01 34:30:22
TRACK 05 AUDIO
TITLE "Souvenir de Dresde, for oboe, cello and piano, Op. 47"
PERFORMER "Les Explorateurs"
INDEX 00 45:26:60
INDEX 01 45:31:59
TRACK 06 AUDIO
TITLE "Les Larmes, for cello and piano, Op. 41"
PERFORMER "Les Explorateurs"
INDEX 00 53:47:37
INDEX 01 53:52:37
TRACK 07 AUDIO
TITLE "Introduction et Variations for violin and piano, Op. 18"
PERFORMER "Les Explorateurs"
INDEX 00 60:05:50
INDEX 01 60:10:50

Вариант индексной карты (.CUE) с исправленными зазорами

REM GENRE Classical
REM DISCID 55119507
REM COMMENT "ExactAudioCopy v1.0b3"
PERFORMER "Les Explorateurs"
TITLE "Dobrzynski – Chamber Works with Piano – Cd 1"
FILE "Dobrzynski – Chamber Works with Piano – Cd 1.flac" WAVE
TRACK 01 AUDIO
TITLE "Piano Trio in A minor, Op. 17 - I. Allegro moderato"
PERFORMER "Les Explorateurs"
INDEX 01 00:00:00
TRACK 02 AUDIO
TITLE "Piano Trio in A minor, Op. 17 - II. Scherzo"
PERFORMER "Les Explorateurs"
INDEX 00 16:07:38
INDEX 01 16:10:22
TRACK 03 AUDIO
TITLE "Piano Trio in A minor, Op. 17 - III. Adagio fantastico"
PERFORMER "Les Explorateurs"
INDEX 00 22:59:70
INDEX 01 23:03:17
TRACK 04 AUDIO
TITLE "Piano Trio in A minor, Op. 17 - IV. Rondo"
PERFORMER "Les Explorateurs"
INDEX 00 34:27:67
INDEX 01 34:30:67
TRACK 05 AUDIO
TITLE "Souvenir de Dresde, for oboe, cello and piano, Op. 47"
PERFORMER "Les Explorateurs"
INDEX 00 45:23:46
INDEX 01 45:31:59
TRACK 06 AUDIO
TITLE "Les Larmes, for cello and piano, Op. 41"
PERFORMER "Les Explorateurs"
INDEX 00 53:43:74
INDEX 01 53:52:37
TRACK 07 AUDIO
TITLE "Introduction et Variations for violin and piano, Op. 18"
PERFORMER "Les Explorateurs"
INDEX 00 60:02:01
INDEX 01 60:10:50
INDEX 02 74:55:62

Вариант индексной карты (.CUE) с исправленными зазорами и разделением вариаций на отдельные треки

REM GENRE Classical
REM DISCID 55119507
REM COMMENT "ExactAudioCopy v1.0b3"
PERFORMER "Les Explorateurs"
TITLE "Dobrzynski – Chamber Works with Piano – Cd 1"
FILE "Dobrzynski – Chamber Works with Piano – Cd 1.flac" WAVE
TRACK 01 AUDIO
TITLE "Piano Trio in A minor, Op. 17 - I. Allegro moderato"
PERFORMER "Les Explorateurs"
INDEX 01 00:00:00
TRACK 02 AUDIO
TITLE "Piano Trio in A minor, Op. 17 - II. Scherzo"
PERFORMER "Les Explorateurs"
INDEX 00 16:07:38
INDEX 01 16:10:22
TRACK 03 AUDIO
TITLE "Piano Trio in A minor, Op. 17 - III. Adagio fantastico"
PERFORMER "Les Explorateurs"
INDEX 00 22:59:70
INDEX 01 23:03:17
TRACK 04 AUDIO
TITLE "Piano Trio in A minor, Op. 17 - IV. Rondo"
PERFORMER "Les Explorateurs"
INDEX 00 34:27:67
INDEX 01 34:30:67
TRACK 05 AUDIO
TITLE "Souvenir de Dresde, for oboe, cello and piano, Op. 47"
PERFORMER "Les Explorateurs"
INDEX 00 45:23:46
INDEX 01 45:31:59
TRACK 06 AUDIO
TITLE "Les Larmes, for cello and piano, Op. 41"
PERFORMER "Les Explorateurs"
INDEX 00 53:43:74
INDEX 01 53:52:37
TRACK 07 AUDIO
TITLE "Introduction et Variations for violin and piano, Op. 18 - Introduction -"
PERFORMER "Les Explorateurs"
INDEX 00 60:02:01
INDEX 01 60:10:50
TRACK 08 AUDIO
TITLE "Introduction et Variations for violin and piano, Op. 18 - Theme -"
PERFORMER "Les Explorateurs"
INDEX 01 62:21:67
TRACK 09 AUDIO
TITLE "Introduction et Variations for violin and piano, Op. 18 - Variation I -"
PERFORMER "Les Explorateurs"
INDEX 01 62:54:39
TRACK 10 AUDIO
TITLE "Introduction et Variations for violin and piano, Op. 18 - Variation II -"
PERFORMER "Les Explorateurs"
INDEX 01 63:51:25
TRACK 11 AUDIO
TITLE "Introduction et Variations for violin and piano, Op. 18 - Variation III -"
PERFORMER "Les Explorateurs"
INDEX 01 64:59:49
TRACK 12 AUDIO
TITLE "Introduction et Variations for violin and piano, Op. 18 - Variation IV -"
PERFORMER "Les Explorateurs"
INDEX 01 65:54:54
TRACK 13 AUDIO
TITLE "Introduction et Variations for violin and piano, Op. 18 - Variation V -"
PERFORMER "Les Explorateurs"
INDEX 01 66:47:26
TRACK 14 AUDIO
TITLE "Introduction et Variations for violin and piano, Op. 18 - Finale"
PERFORMER "Les Explorateurs"
INDEX 01 70:15:32
INDEX 02 74:55:62
-Этот диск является частью единого двухдискового собрания камерной музыки Добжиньского с фортепиано.
Второй диск можно скачать здесь.-Недостающий до полноты собрания Дуэт для кларнета и фортепиано, op. 47 можно скачать здесь (он имеет тот же номер опуса, что и «Воспоминание о Дрездене»).



Показать сообщения:    

Текущее время: 05-Дек 15:33

Часовой пояс: UTC + 3


Вы не можете начинать темы
Вы не можете отвечать на сообщения
Вы не можете редактировать свои сообщения
Вы не можете удалять свои сообщения
Вы не можете голосовать в опросах
Вы не можете прикреплять файлы к сообщениям
Вы не можете скачивать файлы