(Classical, 20th Century) Carlos Guastavino – Tres romances argentines, Tres cantinelas y final, Suite Argentina, Romance de Santa Fe, para piano y orquesta (Alexander Panizza, Orquesta Sinfónica Provincial de Rosari- 2012, FLAC (image+.cue) los


 

[Цитировать]

Carlos Guastavino – Tres romances argentines, Tres cantinelas y final, Suite Argentina, Romance de Santa Fe, para piano y orquesta (Alexander Panizza, Orquesta Sinfónica Provincial de Rosario, Nicolas Rauss)
Жанр: Classical, 20th Century
Страна-производитель диска: Argentina
Год издания диска: 2012
Издатель (лейбл): Melos
Дата записи: 2009-2011
Аудиокодек: FLAC
Тип рипа: image+.cue
Битрейт аудио: lossless
Продолжительность: 01:08:27
Источник: скачано с
сайт-источник/ник/другое: WEB
Наличие сканов в содержимом раздачи: да
Треклист:
Карлос Гуаставино (1912-2000)
1-3. Tres romances argentinos
I. Las Niñas 07:20
II. Muchacho jujeño 06:46
III. Baile en Cuyo 08:59
4-7. Tres cantinelas y final para cuerdas
I. La casa 06:07
II. Juanita 03:56
III. El Ceibo 04:07
IV. Final: Romance en Colastiné 08:30
8-11. Suite Argentina
I. Gato 02:06
II. Se equivocó la paloma 03:00
III. Zamba 02:45
IV. Malambo 01:45
12. Romance de Santa Fe, para piano y orquesta 09:52
13. Bonus Track: Se equivocó la paloma 03:02
Исполнители:
Alexander Panizza (Piano, 12)
María de los Ángeles Cámpora (vocal, 8)
Liliana Herrero (vocal, 13)
Grupo vocal femenino (8,13)
Orquesta Sinfónica Provincial de Rosario (Santa Fe, Argentina).
Nicolás Rauss

Лог создания рипа

Exact Audio Copy V1.0 beta 3 from 29. August 2011
EAC extraction logfile from 28. June 2014, 11:22
Orquesta Sinfonica Provincial de Rosario / Guastavino Sinfonico
Used drive : TSSTcorpCDDVDW SE-208AB Adapter: 0 ID: 0
Read mode : Secure
Utilize accurate stream : Yes
Defeat audio cache : Yes
Make use of C2 pointers : No
Read offset correction : 6
Overread into Lead-In and Lead-Out : No
Fill up missing offset samples with silence : Yes
Delete leading and trailing silent blocks : No
Null samples used in CRC calculations : Yes
Used interface : Native Win32 interface for Win NT & 2000
Used output format : User Defined Encoder
Selected bitrate : 768 kBit/s
Quality : High
Add ID3 tag : No
Command line compressor : C:\Program Files (x86)\Exact Audio Copy\FLAC\FLAC.EXE
Additional command line options : -6 -V -T "ARTIST=%artist%" -T "TITLE=%title%" -T "ALBUM=%albumtitle%" -T "DATE=%year%" -T "TRACKNUMBER=%tracknr%" -T "GENRE=%genre%" -T "COMMENT=%comment%" -T "BAND=%albuminterpret%" -T "ALBUMARTIST=%albuminterpret%" -T "COMPOSER=%composer%" %haslyrics%--tag-from-file=LYRICS="%lyricsfile%"%haslyrics% -T "DISCNUMBER=%cdnumber%" -T "TOTALDISCS=%totalcds%" -T "TOTALTRACKS=%numtracks%" %hascover%--picture="%coverfile%"%hascover% %source% -o %dest%
TOC of the extracted CD
Track | Start | Length | Start sector | End sector
---------------------------------------------------------
1 | 0:00.00 | 7:18.65 | 0 | 32914
2 | 7:18.65 | 6:46.35 | 32915 | 63399
3 | 14:05.25 | 9:03.63 | 63400 | 104187
4 | 23:09.13 | 6:03.20 | 104188 | 131432
5 | 29:12.33 | 3:56.02 | 131433 | 149134
6 | 33:08.35 | 4:07.29 | 149135 | 167688
7 | 37:15.64 | 8:34.32 | 167689 | 206270
8 | 45:50.21 | 2:02.18 | 206271 | 215438
9 | 47:52.39 | 3:00.50 | 215439 | 228988
10 | 50:53.14 | 2:45.35 | 228989 | 241398
11 | 53:38.49 | 1:58.68 | 241399 | 250316
12 | 55:37.42 | 9:52.14 | 250317 | 294730
13 | 65:29.56 | 2:58.17 | 294731 | 308097
Range status and errors
Selected range
Filename C:\EAC RIPS\Carlos Guastavino - Guastavino Sinfonico.wav
Peak level 99.9 %
Extraction speed 2.0 X
Range quality 100.0 %
Test CRC ACD6569B
Copy CRC ACD6569B
Copy OK
No errors occurred
AccurateRip summary
Track 1 not present in database
Track 2 not present in database
Track 3 not present in database
Track 4 not present in database
Track 5 not present in database
Track 6 not present in database
Track 7 not present in database
Track 8 not present in database
Track 9 not present in database
Track 10 not present in database
Track 11 not present in database
Track 12 not present in database
Track 13 not present in database
None of the tracks are present in the AccurateRip database
End of status report
---- CUETools DB Plugin V2.1.3
[CTDB TOCID: tU4m1WixP9xsLKZs7ZwUjKUOS3s-] database access error: No se puede resolver el nombre remoto: 'db.cuetools.net'
==== Log checksum 3C363ABCDB8C700C1F443D011119C3E9E936CAB03EEDB7F66CC8816432DE7D53 ====
------------------------------------------------------------
Exact Audio Copy V1.0 beta 3 from 29. August 2011
EAC extraction logfile from 28. June 2014, 11:22
Orquesta Sinfonica Provincial de Rosario / Guastavino Sinfonico
Used drive : TSSTcorpCDDVDW SE-208AB Adapter: 0 ID: 0
Read mode : Secure
Utilize accurate stream : Yes
Defeat audio cache : Yes
Make use of C2 pointers : No
Read offset correction : 6
Overread into Lead-In and Lead-Out : No
Fill up missing offset samples with silence : Yes
Delete leading and trailing silent blocks : No
Null samples used in CRC calculations : Yes
Used interface : Native Win32 interface for Win NT & 2000
Used output format : User Defined Encoder
Selected bitrate : 768 kBit/s
Quality : High
Add ID3 tag : No
Command line compressor : C:\Program Files (x86)\Exact Audio Copy\FLAC\FLAC.EXE
Additional command line options : -6 -V -T "ARTIST=%artist%" -T "TITLE=%title%" -T "ALBUM=%albumtitle%" -T "DATE=%year%" -T "TRACKNUMBER=%tracknr%" -T "GENRE=%genre%" -T "COMMENT=%comment%" -T "BAND=%albuminterpret%" -T "ALBUMARTIST=%albuminterpret%" -T "COMPOSER=%composer%" %haslyrics%--tag-from-file=LYRICS="%lyricsfile%"%haslyrics% -T "DISCNUMBER=%cdnumber%" -T "TOTALDISCS=%totalcds%" -T "TOTALTRACKS=%numtracks%" %hascover%--picture="%coverfile%"%hascover% %source% -o %dest%
TOC of the extracted CD
Track | Start | Length | Start sector | End sector
---------------------------------------------------------
1 | 0:00.00 | 7:18.65 | 0 | 32914
2 | 7:18.65 | 6:46.35 | 32915 | 63399
3 | 14:05.25 | 9:03.63 | 63400 | 104187
4 | 23:09.13 | 6:03.20 | 104188 | 131432
5 | 29:12.33 | 3:56.02 | 131433 | 149134
6 | 33:08.35 | 4:07.29 | 149135 | 167688
7 | 37:15.64 | 8:34.32 | 167689 | 206270
8 | 45:50.21 | 2:02.18 | 206271 | 215438
9 | 47:52.39 | 3:00.50 | 215439 | 228988
10 | 50:53.14 | 2:45.35 | 228989 | 241398
11 | 53:38.49 | 1:58.68 | 241399 | 250316
12 | 55:37.42 | 9:52.14 | 250317 | 294730
13 | 65:29.56 | 2:58.17 | 294731 | 308097
Range status and errors
Selected range
Filename C:\EAC RIPS\Carlos Guastavino - Guastavino Sinfonico.wav
Peak level 99.9 %
Extraction speed 2.0 X
Range quality 100.0 %
Test CRC ACD6569B
Copy CRC ACD6569B
Copy OK
No errors occurred
AccurateRip summary
Track 1 not present in database
Track 2 not present in database
Track 3 not present in database
Track 4 not present in database
Track 5 not present in database
Track 6 not present in database
Track 7 not present in database
Track 8 not present in database
Track 9 not present in database
Track 10 not present in database
Track 11 not present in database
Track 12 not present in database
Track 13 not present in database
None of the tracks are present in the AccurateRip database
End of status report
---- CUETools DB Plugin V2.1.3
[CTDB TOCID: tU4m1WixP9xsLKZs7ZwUjKUOS3s-] database access error: No se puede resolver el nombre remoto: 'db.cuetools.net'
==== Log checksum 3C363ABCDB8C700C1F443D011119C3E9E936CAB03EEDB7F66CC8816432DE7D53 ====



Показать сообщения:    

Текущее время: 07-Дек 21:22

Часовой пояс: UTC + 3


Вы не можете начинать темы
Вы не можете отвечать на сообщения
Вы не можете редактировать свои сообщения
Вы не можете удалять свои сообщения
Вы не можете голосовать в опросах
Вы не можете прикреплять файлы к сообщениям
Вы не можете скачивать файлы