(Classical)Johann Strauss II–Waltzes(Artist's Life, Roses from the South, Tales from the Vienna Woods, Emperor , The Blue Danube)and Overtures (The Gypsy Baron, The Bat) (London Philharmonic Orchestra/Welser-Most) - 2005, WavPack (iso.wv) lossless


 

[Цитировать]

Johann Strauss II
Waltzes (Artist's Life, Roses from the South, Tales from the Vienna Woods, Emperor Waltz, The Blue Danube) and Overtures (The Gypsy Baron, The Bat)
(London Philharmonic Orchestra/ Franz Welser-Most)
Johann Strauss II (1825–1899) Жанр: Сlassical
Страна-производитель диска: E.U.
Год издания диска: 2005
Издатель (лейбл): EMI Classics
Номер по каталогу: 5 86433 2
Дата записи: 8-10.04.1990
Аудиокодек: WavPack
Тип рипа: iso.wv
Битрейт аудио: lossless
Продолжительность: 01:06:01
Источник: shatterhand
Наличие сканов в содержимом раздачи: да
Треклист:
Waltzes & Overtures
01. Künstlerleben (Artist's Life) Op.316 (9:26)
02. Rosen aus dem Süden (Roses from the South) Op.388 (8:54)
03. Der Zigeunerbaron(The Gypsy Baron):Ouvertüre Op.417 (7:13)
04. G'schichten aus dem Wienerwald (Tales from the Vienna Woods) Op.325 (12:04)
05. Kaiserwalzer (Emperor Waltz) Op.437 (10:29)
06. Die Fledermaus (The Bat): Ouvertüre Op.362 (7:48)
07. An der schönen, blauen Donau (The Blue Danube) Op.314 (9:39)
Исполнители:
London Philharmonic Orchestra
conducted by Franz Welser-Möst

Перечень файлов (содержимое) контейнера в текстовом виде.

1. Содержимое CUE-файла.
2. Отчёт ЕАС.
3. Аудиофайл (.wv)
4. Сканы: буклет, диск, (полные) JPG;
5. тех. данные
6. Сканы front, CD, Back формат jpeg

Лог создания рипа

Exact Audio Copy V1.0 beta 3 from 29. August 2011
EAC extraction logfile from 17. March 2014, 10:07
The London Philharmonic / J. Strauss II: Waltzes & Overtures
Used drive : TSSTcorpCDDVDW SH-224DB Adapter: 3 ID: 0
Read mode : Secure
Utilize accurate stream : Yes
Defeat audio cache : Yes
Make use of C2 pointers : No
Read offset correction : 6
Overread into Lead-In and Lead-Out : No
Fill up missing offset samples with silence : Yes
Delete leading and trailing silent blocks : No
Null samples used in CRC calculations : Yes
Used interface : Native Win32 interface for Win NT & 2000
Used output format : Internal WAV Routines
Sample format : 44.100 Hz; 16 Bit; Stereo
TOC of the extracted CD
Track | Start | Length | Start sector | End sector
---------------------------------------------------------
1 | 0:00.33 | 9:27.17 | 33 | 42574
2 | 9:27.50 | 9:00.03 | 42575 | 83077
3 | 18:27.53 | 7:16.22 | 83078 | 115799
4 | 25:44.00 | 12:09.50 | 115800 | 170524
5 | 37:53.50 | 10:35.28 | 170525 | 218177
6 | 48:29.03 | 7:53.20 | 218178 | 253672
7 | 56:22.23 | 9:38.72 | 253673 | 297094
Range status and errors
Selected range
Filename F:\Distr\qqq\The London Philharmonic - J. Strauss II- Waltzes & Overtures.wav
Peak level 97.2 %
Extraction speed 1.7 X
Range quality 100.0 %
Test CRC 7BD698A6
Copy CRC 7BD698A6
Copy OK
No errors occurred
AccurateRip summary
Track 1 accurately ripped (confidence 6) [6B7B63CB] (AR v2)
Track 2 accurately ripped (confidence 6) [3CDC596A] (AR v2)
Track 3 accurately ripped (confidence 6) [F2C1487E] (AR v2)
Track 4 accurately ripped (confidence 5) [99C7C55D] (AR v2)
Track 5 accurately ripped (confidence 5) [4F9B2632] (AR v2)
Track 6 accurately ripped (confidence 5) [F6F94BA8] (AR v2)
Track 7 accurately ripped (confidence 5) [6A9D2A10] (AR v2)
All tracks accurately ripped
End of status report
==== Log checksum 6AF216E6241A1E2DCB22308D229F6D7225CB33BFB48AC37412F5EF817B449DC3 ====

Содержание индексной карты (.CUE)

REM GENRE "Classical"
REM DATE 1991
REM DISCID 600F7907
REM COMMENT "ExactAudioCopy v1.0b3"
CATALOG 0000000000000
PERFORMER "London Philharmonic Orchestra, Franz Welser-Most"
TITLE "J. Strauss II: Waltzes & Overtures"
FILE "London Philharmonic Orchestra, Franz Welser-Most - 1991 - J. Strauss II_ Waltzes & Overtures (EMI Classics 7243 5 86433 2 9) [NL+].wv" WAVE
TRACK 01 AUDIO
TITLE "Kunstlerleben, op.316"
PERFORMER "The London Philharmonic"
INDEX 00 00:00:00
INDEX 01 00:00:33
TRACK 02 AUDIO
TITLE "Rosen aus dem Suden, op.388"
PERFORMER "The London Philharmonic"
INDEX 00 09:21:60
INDEX 01 09:27:50
TRACK 03 AUDIO
TITLE "Der Zigeunerbaron: Ouverture"
PERFORMER "The London Philharmonic"
INDEX 00 18:21:60
INDEX 01 18:27:53
TRACK 04 AUDIO
TITLE "Geschichten aus dem Wienerwald, op.325"
PERFORMER "The London Philharmonic"
INDEX 00 25:40:50
INDEX 01 25:44:00
TRACK 05 AUDIO
TITLE "Kaiser-Walzer, op.437"
PERFORMER "The London Philharmonic"
INDEX 00 37:48:53
INDEX 01 37:53:50
TRACK 06 AUDIO
TITLE "Die Fledermaus: Ouverture, op.352"
PERFORMER "The London Philharmonic"
INDEX 00 48:23:00
INDEX 01 48:29:03
TRACK 07 AUDIO
TITLE "An der schonen, blauen Donau, op.314"
PERFORMER "The London Philharmonic"
INDEX 00 56:17:05
INDEX 01 56:22:23

Лог проверки качества


 

Скриншот спектра частот




Показать сообщения:    

Текущее время: 10-Дек 10:01

Часовой пояс: UTC + 3


Вы не можете начинать темы
Вы не можете отвечать на сообщения
Вы не можете редактировать свои сообщения
Вы не можете удалять свои сообщения
Вы не можете голосовать в опросах
Вы не можете прикреплять файлы к сообщениям
Вы не можете скачивать файлы