(Opera) Donizetti - Maria Stuarda (Gruberova, Oprisanu, Arevalo, Dal Monte - Munchner Rundfunkorchester, Viotti) - 2000, APE (image+.cue) lossless


 

[Цитировать]

Gaetano Donizetti (1797-1848) - Maria Stuarda
Жанр: Opera
Страна-производитель диска: Austria
Год издания диска: 2000
Издатель (лейбл): Nightingale Classics
Номер по каталогу: NC 190209-2
Дата записи: 1998
Аудиокодек: APE
Тип рипа: image+.cue
Битрейт аудио: lossless
Продолжительность: 65'54+57'29
Источник: собственный рип
Наличие сканов в содержимом раздачи: да
Треклист:
Треклист:

CD1

1. Act I: Preludio
2. Act I, No.1. Choro Di Festa: Qui Si Attenda
3. Act I, No.2. Scena E Cavatina: Si, Vuol Di Francia Il Rege/Ah, Quando All'ara
4. Act I, No.2. Scena E Cavatina: In Tal Giorno Di Contento
5. Act I, No.3. Scena: Fra Noi Perche Non Veggio Leicester?
6. Act I, No.4. Cavatina: Questa Imagio, Questo Foglio
7. Act I, No.5. Scena E Duetto: Sei Tu Confuso?
8. Act I, No.5. Scena E Duetto: Era D'amor L'immagine
9. Act II, No.6. Scena E Cavatina: Allenta Il Pie, Regina
10. Act II, No.6. Scena E Cavatina: O Nube Che Lieve Per L'aria
11. Act II, No.6. Scena E Cavatina: Nella Pace Nel Mesto Riposo
12. Act II, No.7. Scena E Duetto: Ah! Non M'inganna La Gioia
13. Act II, No.7. Scena E Duetto: Da Tutti Abbandonata
14. Act II, No.8. Scena: Qual Loco E Questo?
15. Act II, No.9. Sestetto: E Sempre La Stessa
16. Act II, No.10. Dialogo Delle Due Regine: Deh! L'accogli
17. Act II, No.10. Dialogo Delle Due Regine: Morta Al Mondo, E Morta Al Trono
18. Act II, No.11. Stretta Finale: Va, Preparati, Furente

CD2

1. Act III, No.12. Duettino: E Pensi? E Tardi?
2. Act III, No.12. Duettino: Quella Vita A Me Funesta
3. Act III, No.13. Terzetto: Regina! A Lei S'affretta Il Supplizio/Deh! Per Pieta Sospendi
4. Act III, No.13. Terzetto: D'una Sorella, O Barbara
5. Act III, No.14. Scena: La Perfida Insultarmi Anche Volea
6. Act III, No.15. Gran Scena E Duetto Della Confessione: Oh Mio Buon Talbot!
7. Act III, No.15. Gran Scena E Duetto Della Confessione: Delle Mie Colpe Lo Squallido Fantasma
8. Act III, No.15. Gran Scena E Duetto Della Confessione: Quando Di Luce Rosea
9. Act III, No.15. Gran Scena E Duetto Della Confessione: Un'altra Colpa A Piangere
10. Act III, No.15. Gran Scena E Duetto Della Confessione: Lascia Contenta Al Carcere
11. Act III. No.16. Inno Della Morte: Vedeste?/Vedemmo. Oh Truce Apparato!
12. Act III, No.17. Gran Scena E Preghiera Degli Scozzesi: Anna! Qui Piu Sommessi Favellate
13. Act III, No.17. Gran Scena E Preghiera Degli Scozzesi: Deh! Tu Di Un Umile Preghiera
14. Act III, No.18. Aria Del Supplizio: Oh Colpo...!
15. Act III, No.18. Aria Del Supplizio: D'un Cor Che Muore Recha Il Perdono
16. Act III, No.18. Aria Del Supplizio: Giunge Il Conte
17. Act III, No.18. Aria Del Supplizio: Ah! Se Un Giorno
Исполнители:
Gaetano Donizetti (1797-1848) - Maria Stuarda
Opera in three acts
Libretto Giuseppe Bardari after Friedrich Schiller
Maria Stuarda, Regina di Scozia - Edita Gruberova (soprano)
Elisabetta, Regina d'Inghilterra - Carmen Oprisanu (mezzo-soprano)
Roberto, Conte di Leicester - Octavio Arévalo (tenore)
Giorgio Talbot, Conte di Shrewsbury - Duccio dal Monte (basso)
Lord Guglielmo Cecil, Gran Tresoriere - Marcin Bronikowski (baritono)
Anna Kennedy, Nutrice di Maria - Michaela Lucas (mezzo-soprano)
Chor des Bayerischen Rundfunks, Udo Mehrpohl
Münchner Rundfunkorchester, Marcello Viotti

Лог создания рипа

CD1

Exact Audio Copy V1.0 beta 3 from 29. August 2011
EAC extraction logfile from 7. September 2014, 18:14
Donizetti / Maria Stuarda, Votti CD1
Used drive : TS8XDVDSTRANSCEND Adapter: 1 ID: 1
Read mode : Secure
Utilize accurate stream : Yes
Defeat audio cache : Yes
Make use of C2 pointers : No
Read offset correction : 6
Overread into Lead-In and Lead-Out : No
Fill up missing offset samples with silence : Yes
Delete leading and trailing silent blocks : No
Null samples used in CRC calculations : Yes
Used interface : Native Win32 interface for Win NT & 2000
Used output format : Monkey's Audio Lossless Encoder
Selected bitrate : High Lossless Compression
Quality : High
Add ID3 tag : No
Command line compressor : C:\Program Files (x86)\Exact Audio Copy\MAC\MAC.exe
TOC of the extracted CD
Track | Start | Length | Start sector | End sector
---------------------------------------------------------
1 | 0:00.00 | 1:55.42 | 0 | 8666
2 | 1:55.42 | 2:28.55 | 8667 | 19821
3 | 4:24.22 | 4:22.35 | 19822 | 39506
4 | 8:46.57 | 5:04.00 | 39507 | 62306
5 | 13:50.57 | 3:26.30 | 62307 | 77786
6 | 17:17.12 | 5:11.45 | 77787 | 101156
7 | 22:28.57 | 3:41.28 | 101157 | 117759
8 | 26:10.10 | 6:21.57 | 117760 | 146391
9 | 32:31.67 | 3:11.73 | 146392 | 160789
10 | 35:43.65 | 4:24.60 | 160790 | 180649
11 | 40:08.50 | 2:54.57 | 180650 | 193756
12 | 43:03.32 | 1:38.68 | 193757 | 201174
13 | 44:42.25 | 6:56.65 | 201175 | 232439
14 | 51:39.15 | 2:15.37 | 232440 | 242601
15 | 53:54.52 | 2:11.28 | 242602 | 252454
16 | 56:06.05 | 0:44.00 | 252455 | 255754
17 | 56:50.05 | 6:27.60 | 255755 | 284839
18 | 63:17.65 | 2:36.12 | 284840 | 296551
Range status and errors
Selected range
Filename D:\EAC\Donizetti - Maria Stuarda, Votti CD1.wav
Peak level 93.2 %
Extraction speed 3.3 X
Range quality 100.0 %
Test CRC 64DDD950
Copy CRC 64DDD950
Copy OK
No errors occurred
AccurateRip summary
Track 1 cannot be verified as accurate (confidence 1) [047910F6], AccurateRip returned [70CE0F28] (AR v2)
Track 2 cannot be verified as accurate (confidence 1) [48A45A23], AccurateRip returned [946A3B8A] (AR v2)
Track 3 cannot be verified as accurate (confidence 1) [5E52CF29], AccurateRip returned [E8D0FB74] (AR v2)
Track 4 cannot be verified as accurate (confidence 1) [F77D4E42], AccurateRip returned [858AC5C2] (AR v2)
Track 5 cannot be verified as accurate (confidence 1) [4B2A1129], AccurateRip returned [93ED76BC] (AR v2)
Track 6 cannot be verified as accurate (confidence 1) [AABDA847], AccurateRip returned [F5AD9BCE] (AR v2)
Track 7 cannot be verified as accurate (confidence 1) [E88C5765], AccurateRip returned [7A018AA0] (AR v2)
Track 8 cannot be verified as accurate (confidence 1) [FE029936], AccurateRip returned [86A15200] (AR v2)
Track 9 cannot be verified as accurate (confidence 1) [FFAE7530], AccurateRip returned [1BAF80FA] (AR v2)
Track 10 cannot be verified as accurate (confidence 1) [63A433A0], AccurateRip returned [D78ED895] (AR v2)
Track 11 cannot be verified as accurate (confidence 1) [AF641D03], AccurateRip returned [5FC80BE4] (AR v2)
Track 12 cannot be verified as accurate (confidence 1) [7D34369E], AccurateRip returned [BBFC6034] (AR v2)
Track 13 cannot be verified as accurate (confidence 1) [BC35C395], AccurateRip returned [558EC023] (AR v2)
Track 14 cannot be verified as accurate (confidence 1) [46D8C0FC], AccurateRip returned [EBD7D87C] (AR v2)
Track 15 cannot be verified as accurate (confidence 1) [C0F4CB3B], AccurateRip returned [F483890F] (AR v2)
Track 16 cannot be verified as accurate (confidence 1) [243702FE], AccurateRip returned [74FAF28B] (AR v2)
Track 17 cannot be verified as accurate (confidence 1) [BBCC3EBE], AccurateRip returned [7F7A4EBE] (AR v2)
Track 18 cannot be verified as accurate (confidence 1) [FBEC0784], AccurateRip returned [82CF1004] (AR v2)
No tracks could be verified as accurate
You may have a different pressing from the one(s) in the database
End of status report
---- CUETools DB Plugin V2.1.3
[CTDB TOCID: kIuqPhiFsbj1EozDqFAVeWWxUvg-] disk not present in database, Submit result: unrecognized or virtual drive
==== Log checksum 625E3C58984B607B193825F7B29FA39CC4F97C66DF422A883C7CB3F6426E7759 ====

CD2

Exact Audio Copy V1.0 beta 3 from 29. August 2011
EAC extraction logfile from 7. September 2014, 17:57
Donizetti / Maria Stuarda, Votti CD2
Used drive : TSSTcorpCDDVDW SE-208AB Adapter: 1 ID: 0
Read mode : Secure
Utilize accurate stream : Yes
Defeat audio cache : Yes
Make use of C2 pointers : No
Read offset correction : 6
Overread into Lead-In and Lead-Out : No
Fill up missing offset samples with silence : Yes
Delete leading and trailing silent blocks : No
Null samples used in CRC calculations : Yes
Used interface : Native Win32 interface for Win NT & 2000
Used output format : Monkey's Audio Lossless Encoder
Selected bitrate : High Lossless Compression
Quality : High
Add ID3 tag : No
Command line compressor : C:\Program Files (x86)\Exact Audio Copy\MAC\MAC.exe
TOC of the extracted CD
Track | Start | Length | Start sector | End sector
---------------------------------------------------------
1 | 0:00.00 | 3:22.22 | 0 | 15171
2 | 3:22.22 | 3:35.58 | 15172 | 31354
3 | 6:58.05 | 4:01.70 | 31355 | 49499
4 | 11:00.00 | 2:41.37 | 49500 | 61611
5 | 13:41.37 | 3:48.05 | 61612 | 78716
6 | 17:29.42 | 2:00.10 | 78717 | 87726
7 | 19:29.52 | 1:59.08 | 87727 | 96659
8 | 21:28.60 | 4:13.45 | 96660 | 115679
9 | 25:42.30 | 1:57.55 | 115680 | 124509
10 | 27:40.10 | 2:28.42 | 124510 | 135651
11 | 30:08.52 | 6:49.58 | 135652 | 166384
12 | 36:58.35 | 4:13.60 | 166385 | 185419
13 | 41:12.20 | 2:59.37 | 185420 | 198881
14 | 44:11.57 | 1:23.00 | 198882 | 205106
15 | 45:34.57 | 4:12.48 | 205107 | 224054
16 | 49:47.30 | 1:46.70 | 224055 | 232074
17 | 51:34.25 | 5:55.45 | 232075 | 258744
Range status and errors
Selected range
Filename D:\EAC\Donizetti - Maria Stuarda, Votti CD2.wav
Peak level 64.6 %
Extraction speed 4.8 X
Range quality 100.0 %
Test CRC 51132CEC
Copy CRC 51132CEC
Copy OK
No errors occurred
AccurateRip summary
Track 1 cannot be verified as accurate (confidence 1) [C8D653D6], AccurateRip returned [C8863A3E] (AR v2)
Track 2 cannot be verified as accurate (confidence 1) [9C8C5031], AccurateRip returned [D3D9C573] (AR v2)
Track 3 cannot be verified as accurate (confidence 1) [C41CE4ED], AccurateRip returned [787FB1AC] (AR v2)
Track 4 cannot be verified as accurate (confidence 1) [8BF78779], AccurateRip returned [72993A53] (AR v2)
Track 5 cannot be verified as accurate (confidence 1) [DEEA7C8F], AccurateRip returned [FE7AED1A] (AR v2)
Track 6 cannot be verified as accurate (confidence 1) [10B3D9FD], AccurateRip returned [E340185D] (AR v2)
Track 7 cannot be verified as accurate (confidence 1) [B0DDD8B9], AccurateRip returned [FF9D7BF1] (AR v2)
Track 8 cannot be verified as accurate (confidence 1) [7DF5AB6E], AccurateRip returned [7D8769E5] (AR v2)
Track 9 cannot be verified as accurate (confidence 1) [A449E3A2], AccurateRip returned [634CBD02] (AR v2)
Track 10 cannot be verified as accurate (confidence 1) [08203576], AccurateRip returned [881A2FC1] (AR v2)
Track 11 cannot be verified as accurate (confidence 1) [6FD134B6], AccurateRip returned [9418F5BA] (AR v2)
Track 12 cannot be verified as accurate (confidence 1) [A34DD430], AccurateRip returned [92C3C2BD] (AR v2)
Track 13 cannot be verified as accurate (confidence 1) [987139AB], AccurateRip returned [6BDC4A5D] (AR v2)
Track 14 cannot be verified as accurate (confidence 1) [3DFFDE8C], AccurateRip returned [80C3166D] (AR v2)
Track 15 cannot be verified as accurate (confidence 1) [6A117060], AccurateRip returned [42B0CC6A] (AR v2)
Track 16 cannot be verified as accurate (confidence 1) [2939AE76], AccurateRip returned [849422CD] (AR v2)
Track 17 cannot be verified as accurate (confidence 1) [7DBA037F], AccurateRip returned [BD33DF90] (AR v2)
No tracks could be verified as accurate
You may have a different pressing from the one(s) in the database
End of status report
---- CUETools DB Plugin V2.1.3
[CTDB TOCID: DQMUVBR76BidIPyuHaUlRLPOH.o-] disk not present in database, Submit result: DQMUVBR76BidIPyuHaUlRLPOH.o- has been uploaded
==== Log checksum 35D900CFD17AC662C2BE86B427BFCCFF9484B4683845F336AACBE2B55594E151 ====

Содержание индексной карты (.CUE)

CD1

REM GENRE Opera
REM DATE 1998
REM DISCID F40F7212
REM COMMENT "ExactAudioCopy v1.0b3"
CATALOG 0000000000000
PERFORMER "Donizetti"
TITLE "Maria Stuarda, Votti CD1"
FILE "Donizetti - Maria Stuarda, Votti CD1.ape" WAVE
TRACK 01 AUDIO
TITLE "--> Akt I - Preludio"
PERFORMER "Donizetti"
INDEX 01 00:00:00
TRACK 02 AUDIO
TITLE "Nr. 1 - Coro di festa"
PERFORMER "Donizetti"
INDEX 01 01:55:42
TRACK 03 AUDIO
TITLE "Nr. 2 - Scena e Cavatina (Elisabetta)"
PERFORMER "Donizetti"
INDEX 01 04:24:22
TRACK 04 AUDIO
TITLE "Nr. 2 - Fortsetzung (Talbot, Coro, Cecil, Elisabetta)"
PERFORMER "Donizetti"
INDEX 01 08:46:57
TRACK 05 AUDIO
TITLE "Nr. 3 - Scena (Elisabetta, Cecil, Leicester,Talbot)"
PERFORMER "Donizetti"
INDEX 01 13:50:57
TRACK 06 AUDIO
TITLE "Nr. 4 - Cavatina (Talbot, Leicester)"
PERFORMER "Donizetti"
INDEX 01 17:17:12
TRACK 07 AUDIO
TITLE "Nr. 5 - Scena e Duetto (Elisabetta, Leicester)"
PERFORMER "Donizetti"
INDEX 01 22:28:57
TRACK 08 AUDIO
TITLE "Nr. 5 - Fortsetzung (Elisabetta, Leicester)"
PERFORMER "Donizetti"
INDEX 01 26:10:10
TRACK 09 AUDIO
TITLE "--> Akt II - Nr. 6 Scena e Cavatina (Anna, Regina)"
PERFORMER "Donizetti"
INDEX 00 32:22:12
INDEX 01 32:31:67
TRACK 10 AUDIO
TITLE "Nr. 6 - Fortsetzung (Maria, Coro,Anna)"
PERFORMER "Donizetti"
INDEX 01 35:43:65
TRACK 11 AUDIO
TITLE "Nr. 6 - Fortsetzung (Maria, Anna)"
PERFORMER "Donizetti"
INDEX 01 40:08:50
TRACK 12 AUDIO
TITLE "Nr. 7 - Scena e Duetto (Maria, Leicester)"
PERFORMER "Donizetti"
INDEX 01 43:03:32
TRACK 13 AUDIO
TITLE "Nr. 7 - Fortsetzung (Maria, Leicester)"
PERFORMER "Donizetti"
INDEX 01 44:42:25
TRACK 14 AUDIO
TITLE "Nr. 8 - Scena (Elisabetta, Leicester, Cecil, Talbot, Maria)"
PERFORMER "Donizetti"
INDEX 01 51:39:15
TRACK 15 AUDIO
TITLE "Nr. 9 - Sestetto (Elisabetta,Maria,Talbot,Anna,Leicester, Cecil)"
PERFORMER "Donizetti"
INDEX 01 53:54:52
TRACK 16 AUDIO
TITLE "Nr. 10 - Dialogo delle due Regine (Leicester, Elisabetta, Talbot, Maria)"
PERFORMER "Donizetti"
INDEX 01 56:06:05
TRACK 17 AUDIO
TITLE "Nr. 10 - Fortsetzung"
PERFORMER "Donizetti"
INDEX 01 56:50:05
TRACK 18 AUDIO
TITLE "Nr. 11 - Stretta finale 8Elisabetta,Cecil,Anna,Talbot,Maria,Leicester,Coro)"
PERFORMER "Donizetti"
INDEX 01 63:17:65

CD2

REM GENRE Opera
REM DATE 1998
REM DISCID D40D7911
REM COMMENT "ExactAudioCopy v1.0b3"
CATALOG 0000000000000
PERFORMER "Donizetti"
TITLE "Maria Stuarda, Votti CD2"
FILE "Donizetti - Maria Stuarda, Votti CD2.ape" WAVE
TRACK 01 AUDIO
TITLE "--> Akt III - Nr. 12 - Duettino (Cecil, Elisabetta)"
PERFORMER "Donizetti"
INDEX 01 00:00:00
TRACK 02 AUDIO
TITLE "Nr. 12 - Fortsetzung (Elisabtta, Cecil)"
PERFORMER "Donizetti"
INDEX 01 03:22:22
TRACK 03 AUDIO
TITLE "Nr. 13 - Terzetto (Leicester, Elisabetta, Cecil)"
PERFORMER "Donizetti"
INDEX 01 06:58:05
TRACK 04 AUDIO
TITLE "Nr. 13 - Fortsetzung (Leicester, Elisabetta, Cecil)"
PERFORMER "Donizetti"
INDEX 01 11:00:00
TRACK 05 AUDIO
TITLE "Nr. 14 - Scena (Maria, Cecil)"
PERFORMER "Donizetti"
INDEX 01 13:41:37
TRACK 06 AUDIO
TITLE "Nr. 15 - Gran Scena e Duetto della confessione (Maria, Talbot)"
PERFORMER "Donizetti"
INDEX 01 17:29:42
TRACK 07 AUDIO
TITLE "Nr. 15 - Fortsetzung a"
PERFORMER "Donizetti"
INDEX 01 19:29:52
TRACK 08 AUDIO
TITLE "Nr. 15 - Fortsetzung b"
PERFORMER "Donizetti"
INDEX 01 21:28:60
TRACK 09 AUDIO
TITLE "Nr. 15 - Fortsetzung c"
PERFORMER "Donizetti"
INDEX 01 25:42:30
TRACK 10 AUDIO
TITLE "Nr. 15 - Fortsetzung d"
PERFORMER "Donizetti"
INDEX 01 27:40:10
TRACK 11 AUDIO
TITLE "Nr. 16 - Inno della morte (Coro)"
PERFORMER "Donizetti"
INDEX 01 30:08:52
TRACK 12 AUDIO
TITLE "Nr. 17 - Gran Scena e Preghiera degli Scozzesi"
PERFORMER "Donizetti"
INDEX 01 36:58:35
TRACK 13 AUDIO
TITLE "Nr. 17 - Fortsetzung (Anna, Coro, Maria)"
PERFORMER "Donizetti"
INDEX 01 41:12:20
TRACK 14 AUDIO
TITLE "Nr. 18 - Aria delsupplizio (Talbot, Coro, Cecil, Maria)"
PERFORMER "Donizetti"
INDEX 01 44:11:57
TRACK 15 AUDIO
TITLE "Nr. 18 - Fortsetzung (Talbot, Coro, Cecil, Maria, Coro)"
PERFORMER "Donizetti"
INDEX 01 45:34:57
TRACK 16 AUDIO
TITLE "Nr. 18 - Fortsetzung (Talbot, Maria, Leicester, Coro, Cecil)"
PERFORMER "Donizetti"
INDEX 01 49:47:30
TRACK 17 AUDIO
TITLE "Nr. 18 - Fortsetzung (Maria, Leicester, Talbot, Cecil, Anna, Coro)"
PERFORMER "Donizetti"
INDEX 01 51:34:25



Показать сообщения:    

Текущее время: 09-Дек 03:07

Часовой пояс: UTC + 3


Вы не можете начинать темы
Вы не можете отвечать на сообщения
Вы не можете редактировать свои сообщения
Вы не можете удалять свои сообщения
Вы не можете голосовать в опросах
Вы не можете прикреплять файлы к сообщениям
Вы не можете скачивать файлы