(Classical) Philipp Heinrich Erlebach - VI Sonate a Violino e Viola da Gamba col suo Basso Continuo - Rodolfo Richter, Alison McGillivray, Silas Standage, Eligio Quinteiro, Peter McCarthy - 2005, FLAC (image+.cue) lossless


 

[Цитировать]

Philipp Heinrich Erlebach - VI Sonate a Violino e Viola da Gamba col suo Basso Continuo - Rodolfo Richter, Alison McGillivray, Silas Standage, Eligio Quinteiro, Peter McCarthy
Жанр: Classical
Страна-производитель диска: UK
Год издания диска: 2005
Издатель (лейбл): Linn Records
Номер по каталогу: CKD 270
Дата записи: 2001
Аудиокодек: FLAC
Тип рипа: image+.cue
Битрейт аудио: lossless
Продолжительность: 70:59
Источник: собственный рип
Наличие сканов в содержимом раздачи: да
Треклист:
Philipp Heinrich Erlebach (1657-1714)
VI Sonate a Violino e Viola da Gamba col suo Basso Continuo
[1]-[5] Sonata Prima in D major
[6]-[10] Sonata Quinta in B flat major
[11]-[15] Sonata Seconda in E minor
[16]-[20] Sonata Quarte in C major
[21]-[25] Sonata Sesta in F major
[26]-[30] Sonata Terza in A major
Исполнители:
Rodolfo Richter violin
Alison McGillivray viola da gamba
Silas Standage harpsichord, organ
Eligio Quinteiro theorbo
Peter McCarthy violone

Лог создания рипа

Exact Audio Copy V1.0 beta 3 from 29. August 2011
EAC extraction logfile from 30. July 2014, 20:20
Rodolfo Richter / Erlebach - VI Sonate
Used drive : HL-DT-STDVDRAM GU70N Adapter: 0 ID: 0
Read mode : Secure
Utilize accurate stream : Yes
Defeat audio cache : Yes
Make use of C2 pointers : No
Read offset correction : 48
Overread into Lead-In and Lead-Out : No
Fill up missing offset samples with silence : Yes
Delete leading and trailing silent blocks : No
Null samples used in CRC calculations : Yes
Used interface : Native Win32 interface for Win NT & 2000
Used output format : User Defined Encoder
Selected bitrate : 128 kBit/s
Quality : High
Add ID3 tag : No
Command line compressor : C:\Program Files (x86)\Exact Audio Copy\Flac\flac.exe
Additional command line options : -V -8 -T "Date=%year%" -T "Genre=%genre%" %source%
TOC of the extracted CD
Track | Start | Length | Start sector | End sector
---------------------------------------------------------
1 | 0:00.00 | 4:50.06 | 0 | 21755
2 | 4:50.06 | 1:37.44 | 21756 | 29074
3 | 6:27.50 | 1:11.08 | 29075 | 34407
4 | 7:38.58 | 1:52.08 | 34408 | 42815
5 | 9:30.66 | 1:42.38 | 42816 | 50503
6 | 11:13.29 | 1:54.55 | 50504 | 59108
7 | 13:08.09 | 2:49.16 | 59109 | 71799
8 | 15:57.25 | 1:16.05 | 71800 | 77504
9 | 17:13.30 | 2:39.71 | 77505 | 89500
10 | 19:53.26 | 1:28.21 | 89501 | 96121
11 | 21:21.47 | 4:19.64 | 96122 | 115610
12 | 25:41.36 | 1:10.24 | 115611 | 120884
13 | 26:51.60 | 1:02.40 | 120885 | 125574
14 | 27:54.25 | 3:02.24 | 125575 | 139248
15 | 30:56.49 | 1:40.12 | 139249 | 146760
16 | 32:36.61 | 3:17.50 | 146761 | 161585
17 | 35:54.36 | 2:49.65 | 161586 | 174325
18 | 38:44.26 | 1:38.73 | 174326 | 181748
19 | 40:23.24 | 2:07.13 | 181749 | 191286
20 | 42:30.37 | 1:35.42 | 191287 | 198453
21 | 44:06.04 | 4:24.04 | 198454 | 218257
22 | 48:30.08 | 2:02.59 | 218258 | 227466
23 | 50:32.67 | 0:59.37 | 227467 | 231928
24 | 51:32.29 | 3:12.04 | 231929 | 246332
25 | 54:44.33 | 1:39.73 | 246333 | 253830
26 | 56:24.31 | 2:22.04 | 253831 | 264484
27 | 58:46.35 | 2:22.18 | 264485 | 275152
28 | 61:08.53 | 1:34.19 | 275153 | 282221
29 | 62:42.72 | 1:17.55 | 282222 | 288051
30 | 64:00.52 | 6:56.08 | 288052 | 319259
Range status and errors
Selected range
Filename C:\temp\Erlebach - VI Sonate\Erlebach - VI Sonate.wav
Peak level 84.0 %
Extraction speed 2.1 X
Range quality 100.0 %
Test CRC 9145785E
Copy CRC 9145785E
Copy OK
No errors occurred
AccurateRip summary
Track 1 accurately ripped (confidence 2) [AC63DA5B] (AR v2)
Track 2 accurately ripped (confidence 2) [A8A86876] (AR v2)
Track 3 accurately ripped (confidence 2) [3E817068] (AR v2)
Track 4 accurately ripped (confidence 2) [E33DD585] (AR v2)
Track 5 accurately ripped (confidence 2) [4635E0B7] (AR v2)
Track 6 accurately ripped (confidence 2) [10F7F053] (AR v2)
Track 7 accurately ripped (confidence 2) [9F7CBA4A] (AR v2)
Track 8 accurately ripped (confidence 2) [B3491892] (AR v2)
Track 9 accurately ripped (confidence 2) [B41865D8] (AR v2)
Track 10 accurately ripped (confidence 2) [97367F41] (AR v2)
Track 11 accurately ripped (confidence 2) [67B539DE] (AR v2)
Track 12 accurately ripped (confidence 2) [6D4DB38A] (AR v2)
Track 13 accurately ripped (confidence 2) [D1E92DBF] (AR v2)
Track 14 accurately ripped (confidence 2) [25B3A139] (AR v2)
Track 15 accurately ripped (confidence 2) [866AA312] (AR v2)
Track 16 accurately ripped (confidence 2) [6E007B12] (AR v2)
Track 17 accurately ripped (confidence 2) [5AEF3173] (AR v2)
Track 18 accurately ripped (confidence 2) [8DC54CEC] (AR v2)
Track 19 accurately ripped (confidence 2) [5FF4089B] (AR v2)
Track 20 accurately ripped (confidence 2) [348BE1E1] (AR v2)
Track 21 accurately ripped (confidence 2) [7D46557E] (AR v2)
Track 22 accurately ripped (confidence 2) [69CFFD05] (AR v2)
Track 23 accurately ripped (confidence 2) [5F69016A] (AR v2)
Track 24 accurately ripped (confidence 2) [4EAD0FA5] (AR v2)
Track 25 accurately ripped (confidence 2) [DAA6CC36] (AR v2)
Track 26 accurately ripped (confidence 2) [4D1E2CB8] (AR v2)
Track 27 accurately ripped (confidence 2) [46A39298] (AR v2)
Track 28 accurately ripped (confidence 2) [5AA28920] (AR v2)
Track 29 accurately ripped (confidence 2) [CD519261] (AR v2)
Track 30 accurately ripped (confidence 2) [979A5E56] (AR v2)
All tracks accurately ripped
End of status report
==== Log checksum 817BFC42615EA599E3F764DA427105244EDDE42DA99206942BDE571FBF50B1A3 ====



Показать сообщения:    

Текущее время: 10-Дек 09:56

Часовой пояс: UTC + 3


Вы не можете начинать темы
Вы не можете отвечать на сообщения
Вы не можете редактировать свои сообщения
Вы не можете удалять свои сообщения
Вы не можете голосовать в опросах
Вы не можете прикреплять файлы к сообщениям
Вы не можете скачивать файлы