(Orchestral) Gustav Mahler - Symphonie Nr.1 (Wiener Symphoniker - Jascha Horenstein) - 1990, FLAC (image+.cue) lossless


 

[Цитировать]

Gustav Mahler - Symphonie Nr.1
Wiener Symphoniker - Jascha Horenstein
----- Жанр: Orchestral
Страна-производитель диска: Switzerland
Год издания диска: 1990
Издатель (лейбл): Tuxedo
Дата записи: 1958
Аудиокодек: FLAC
Тип рипа: image+.cue
Битрейт аудио: lossless
Продолжительность: 57'41''
Источник: собственный рип
Наличие сканов в содержимом раздачи: да
Треклист:
G.Mahler - Symphonie Nr.1:
[1] I. Langsam, schleppend
[2] II. Kräftig bewegt, doch nicht zu schnell
[3] III. Feierlich und gemessen, ohne zu schleppen
[4] IV. Stürmisch Bewegt
Исполнители:
Wiener Symphoniker - Jascha Horenstein-

Лог создания рипа

Exact Audio Copy V1.0 beta 3 from 29. August 2011
EAC extraction logfile from 11. October 2014, 17:46
Wiener Symphoniker - Jascha Horenstein / Mahler - Symphonie Nr.1
Used drive : TSSTcorpCDDVDW SN-208BB Adapter: 0 ID: 1
Read mode : Secure
Utilize accurate stream : Yes
Defeat audio cache : Yes
Make use of C2 pointers : No
Read offset correction : 6
Overread into Lead-In and Lead-Out : No
Fill up missing offset samples with silence : Yes
Delete leading and trailing silent blocks : No
Null samples used in CRC calculations : Yes
Used interface : Native Win32 interface for Win NT & 2000
Used output format : User Defined Encoder
Selected bitrate : 896 kBit/s
Quality : High
Add ID3 tag : No
Command line compressor : C:\Program Files (x86)\FLAC\flac.exe
Additional command line options : -T "COMMENT=rip by el coronel" -8 -V %source%
TOC of the extracted CD
Track | Start | Length | Start sector | End sector
---------------------------------------------------------
1 | 0:00.33 | 16:49.55 | 33 | 75762
2 | 16:50.13 | 8:16.00 | 75763 | 112962
3 | 25:06.13 | 11:43.00 | 112963 | 165687
4 | 36:49.13 | 20:52.20 | 165688 | 259607
Range status and errors
Selected range
Filename K:\Music\Mahler - Symphonie Nr.1 (Horenstein, WS)\Mahler - Symphonie Nr.1.wav
Peak level 96.5 %
Extraction speed 3.0 X
Range quality 99.9 %
Test CRC D0A780B1
Copy CRC D0A780B1
Copy OK
No errors occurred
AccurateRip summary
Track 1 accurately ripped (confidence 4) [D84B16C6] (AR v2)
Track 2 accurately ripped (confidence 4) [FE01FC4C] (AR v2)
Track 3 accurately ripped (confidence 4) [DF4C628A] (AR v2)
Track 4 accurately ripped (confidence 4) [050AF9F0] (AR v2)
All tracks accurately ripped
End of status report
==== Log checksum E24A5E6782614C239E1D04AF58279E12915A9731BD73281B0A7FAD45F8CBD11F ====

Содержание индексной карты (.CUE)

REM GENRE classical
REM DATE 1990
REM DISCID 1A0D8504
REM COMMENT "ExactAudioCopy v1.0b3"
PERFORMER "Wiener Symphoniker - Jascha Horenstein"
TITLE "Mahler - Symphonie Nr.1"
FILE "Mahler - Symphonie Nr.1.flac" WAVE
TRACK 01 AUDIO
TITLE "I. Langsam, schleppend"
PERFORMER "Wiener Symphoniker - Jascha Horenstein"
INDEX 00 00:00:00
INDEX 01 00:00:33
TRACK 02 AUDIO
TITLE "II. Kraftig bewegt, doch nicht zu schnell"
PERFORMER "Wiener Symphoniker - Jascha Horenstein"
INDEX 00 16:43:25
INDEX 01 16:50:13
TRACK 03 AUDIO
TITLE "III. Feierlich und gemessen, ohne zu schleppen"
PERFORMER "Wiener Symphoniker - Jascha Horenstein"
INDEX 00 24:59:65
INDEX 01 25:06:13
TRACK 04 AUDIO
TITLE "IV. Sturmisch Bewegt"
PERFORMER "Wiener Symphoniker - Jascha Horenstein"
INDEX 00 36:42:35
INDEX 01 36:49:13
-



Показать сообщения:    

Текущее время: 02-Дек 21:10

Часовой пояс: UTC + 3


Вы не можете начинать темы
Вы не можете отвечать на сообщения
Вы не можете редактировать свои сообщения
Вы не можете удалять свои сообщения
Вы не можете голосовать в опросах
Вы не можете прикреплять файлы к сообщениям
Вы не можете скачивать файлы