(Orchestral) Gustav Mahler - Symphonie Nr.3 (Norma Procter • London Symphony Orchestra - Jascha Horenstein) - 1988, FLAC (image+.cue) lossless


 

[Цитировать]

Mahler
Symphony No.3

London Symphony Orchestra - Jascha Horenstein
----- Жанр: Orchestral
Страна-производитель диска: England
Год издания диска: 1988
Издатель (лейбл): Unicorn
Дата записи: 27-29.07.1970
Аудиокодек: FLAC
Тип рипа: image+.cue
Битрейт аудио: lossless
Продолжительность: 1:37'33''
Источник: собственный рип
Наличие сканов в содержимом раздачи: да
Треклист:

CD1

[1] I. Kräftig. Entschieden
[2] II. Tempo di menuetto. Sehr massig

Лог создания рипа

Exact Audio Copy V1.0 beta 3 from 29. August 2011
EAC extraction logfile from 17. April 2014, 21:19
London Symphony Orchestra - Jascha Horenstein / Mahler - Symphonie Nr.3 (CD1)
Used drive : COMPAQ CD-ROM LTN403 Adapter: 0 ID: 0
Read mode : Secure
Utilize accurate stream : Yes
Defeat audio cache : Yes
Make use of C2 pointers : No
Read offset correction : -1164
Overread into Lead-In and Lead-Out : No
Fill up missing offset samples with silence : Yes
Delete leading and trailing silent blocks : No
Null samples used in CRC calculations : Yes
Used interface : Native Win32 interface for Win NT & 2000
Used output format : User Defined Encoder
Selected bitrate : 1024 kBit/s
Quality : High
Add ID3 tag : No
Command line compressor : C:\Program Files\FLAC\flac.exe
Additional command line options : -T"COMMENT=rip by el coronel" -8 -V %source%
TOC of the extracted CD
Track | Start | Length | Start sector | End sector
---------------------------------------------------------
1 | 0:00.00 | 33:36.53 | 0 | 151252
2 | 33:36.53 | 9:10.47 | 151253 | 192549
Range status and errors
Selected range
Filename D:\Mahler - Symphonie Nr.3 - Horenstein (CD1).wav
Peak level 100.0 %
Extraction speed 3.0 X
Range quality 100.0 %
Test CRC 63B60DDB
Copy CRC 63B60DDB
Copy OK
No errors occurred
End of status report
==== Log checksum 392D4D53D9DB12BF75DE71B4A67F3C88FAB425CABFBBE0675D7146FEEDEF961B ====

Содержание индексной карты (.CUE)

REM GENRE Classical
REM DATE 1988
REM DISCID 0D0A0702
REM COMMENT "ExactAudioCopy v1.0b3"
PERFORMER "London Symphony Orchestra - Jascha Horenstein"
TITLE "Mahler - Symphonie Nr.3 (CD1)"
FILE "Mahler - Symphonie Nr.3 - Horenstein (CD1).flac" WAVE
TRACK 01 AUDIO
TITLE "I. Kraftig. Entschieden"
PERFORMER "London Symphony Orchestra - Jascha Horenstein"
FLAGS PRE
INDEX 01 00:00:00
TRACK 02 AUDIO
TITLE "II. Tempo di menuetto. Sehr massig"
PERFORMER "London Symphony Orchestra - Jascha Horenstein"
FLAGS PRE
INDEX 00 33:29:35
INDEX 01 33:36:53

CD2

[1] III. Comodo. Scherzando. Ohne Hast
[2] IV. Sehr Langsam. Misterioso
[3] V. Lustig im Tempo und keck im Ausdruck
[4] VI. Langsam. Ruhevoll. Empfunden

Лог создания рипа

Exact Audio Copy V1.0 beta 3 from 29. August 2011
EAC extraction logfile from 17. April 2014, 22:15
London Symphony Orchestra - Jascha Horenstein / Mahler - Symphonie Nr.3 (CD2)
Used drive : COMPAQ CD-ROM LTN403 Adapter: 0 ID: 0
Read mode : Secure
Utilize accurate stream : Yes
Defeat audio cache : Yes
Make use of C2 pointers : No
Read offset correction : -1164
Overread into Lead-In and Lead-Out : No
Fill up missing offset samples with silence : Yes
Delete leading and trailing silent blocks : No
Null samples used in CRC calculations : Yes
Used interface : Native Win32 interface for Win NT & 2000
Used output format : User Defined Encoder
Selected bitrate : 1024 kBit/s
Quality : High
Add ID3 tag : No
Command line compressor : C:\Program Files\FLAC\flac.exe
Additional command line options : -T"COMMENT=rip by el coronel" -8 -V %source%
TOC of the extracted CD
Track | Start | Length | Start sector | End sector
---------------------------------------------------------
1 | 0:00.00 | 18:21.05 | 0 | 82579
2 | 18:21.05 | 8:42.27 | 82580 | 121756
3 | 27:03.32 | 4:50.00 | 121757 | 143506
4 | 31:53.32 | 22:51.60 | 143507 | 246391
Range status and errors
Selected range
Filename D:\Mahler - Symphonie Nr.3 - Horenstein (CD2).wav
Peak level 100.0 %
Extraction speed 3.0 X
Range quality 100.0 %
Test CRC 49A05061
Copy CRC 49A05061
Copy OK
No errors occurred
End of status report
==== Log checksum C343E1286EDD7B64380FBEA425BCC2BC41FB958CFE688D1B124235A0D54C5221 ====

Содержание индексной карты (.CUE)

REM GENRE Classical
REM DATE 1988
REM DISCID 250CD504
REM COMMENT "ExactAudioCopy v1.0b3"
PERFORMER "London Symphony Orchestra - Jascha Horenstein"
TITLE "Mahler - Symphonie Nr.3 (CD2)"
FILE "Mahler - Symphonie Nr.3 - Horenstein (CD2).flac" WAVE
TRACK 01 AUDIO
TITLE "III. Comodo. Scherzando. Ohne Hast"
PERFORMER "London Symphony Orchestra - Jascha Horenstein"
FLAGS PRE
INDEX 01 00:00:00
TRACK 02 AUDIO
TITLE "IV. Sehr Langsam. Misterioso"
PERFORMER "London Symphony Orchestra - Jascha Horenstein"
FLAGS PRE
INDEX 00 18:14:31
INDEX 01 18:21:05
TRACK 03 AUDIO
TITLE "V. Lustig im Tempo und keck im Ausdruck"
PERFORMER "London Symphony Orchestra - Jascha Horenstein"
FLAGS PRE
INDEX 00 26:59:62
INDEX 01 27:03:32
TRACK 04 AUDIO
TITLE "VI. Langsam. Ruhevoll. Empfunden"
PERFORMER "London Symphony Orchestra - Jascha Horenstein"
FLAGS PRE
INDEX 00 31:47:40
INDEX 01 31:53:32
Исполнители:
Norma Procter - contralto
Ambrosian Singers • Wandsworth School Boys' Choir
London Symphony Orchestra - Jascha Horenstein



Показать сообщения:    

Текущее время: 05-Дек 01:20

Часовой пояс: UTC + 3


Вы не можете начинать темы
Вы не можете отвечать на сообщения
Вы не можете редактировать свои сообщения
Вы не можете удалять свои сообщения
Вы не можете голосовать в опросах
Вы не можете прикреплять файлы к сообщениям
Вы не можете скачивать файлы