(Фортепиано) [LP] [24/48] Клара Хаскил - Фортепиано (Из Сокровищницы Мирового Исполнительского Искусства)/Clara Haskil - Piano (The World's Leading Interpreters Of Music) - 1980, FLAC (image+.cue)


Статистика раздачи [Обновить пиров]
Размер:  259 MB   |    Зарегистрирован:  8 месяцев 15 дней   |    Скачан:  0 раз

Полного источника не было: Никогда

Личеров:  3  [  0 KB/s  ]   Подробная статистика пиров
 
   
 
 
 

[Цитировать]

Клара Хаскил - Фортепиано (Из Сокровищницы Мирового Исполнительского Искусства)/Clara Haskil - Piano (The World's Leading Interpreters Of Music)
Жанр: Фортепиано
Носитель: LP
Год выпуска: 1980
Лейбл: Melodya
Страна-производитель: USSR
Аудио кодек: FLAC
Тип рипа: image+.cue
Формат записи: 32/192
Формат раздачи: 24/48
Продолжительность: 49.10 min
Треклист:
Side One:
W.A.Mozart(1756-1791) - Concerto №9 For Piano And Orchestra
In E Flat Major KV 271
01. Allegro
02. Andantino
Side Two:
03. Rondeau
The Vienna Symphony Orchestra - Conductor:Paul Sacher
D.Scarlatti (1685-1757)
04. Sonata in B minor,L33
05. Sonata in F minor,L.171
M.Ravel (1875-1937)
Sonata In F Sharp Minor
06. Modere
07. Mouvement De Menuet
08. Anime
Источник оцифровки: автором раздачи
Код класса состояния винила: Mint
Устройство воспроизведения: Электроника ЭП 017С
Головка звукоснимателя: Audio-Technica AT95
Предварительный усилитель: Бриг-001
АЦП: VIA HD audio device
Программа-оцифровщик: Izotope RX III Advanced
Обработка: Manual

Спектр+АЧХ+Уровень записи


DR=12

foobar2000 1.1.10 / Dynamic Range Meter 1.1.1
log date: 2014-10-12 12:39:02
--------------------------------------------------------------------------------
Analyzed: Clara Haskil / Piano
--------------------------------------------------------------------------------
DR Peak RMS Duration Track
--------------------------------------------------------------------------------
DR13 -0.01 dB -17.01 dB 10:21 ?-Allegro
DR14 -2.86 dB -22.59 dB 11:22 ?-Andantino
DR14 0.00 dB -18.49 dB 10:07 ?-Rondeau
DR11 -0.62 dB -16.48 dB 4:33 ?-Sonata in B minor,L33
DR10 -4.43 dB -17.72 dB 2:25 ?-Sonata in F minor,L.171
DR12 -1.84 dB -20.64 dB 3:57 ?-Modere
DR13 -1.36 dB -22.46 dB 2:47 ?-Mouvement De Menuet
DR10 -2.11 dB -17.11 dB 3:38 ?-Anime
--------------------------------------------------------------------------------
Number of tracks: 8
Official DR value: DR12
Samplerate: 48000 Hz
Channels: 1
Bits per sample: 24
Bitrate: 692 kbps
Codec: FLAC
================================================================================

Back,Inner & Disc





[teatrix.ru].t19231.torrent 
Торрент: Зарегистрирован [ 2016-03-18 12:52 ] · 62955FDE6E1BBC6292664284640F3ED3ACA640CC

Скачать .torrent

Скачать

11 KB

Статус: проверено
Скачан: 0 раз
Размер: 259 MB
terms.php



Быстрый ответ

Имя:

      
Для отправки сообщений необходимо включить JavaScript
Показать сообщения:    

Текущее время: 02-Дек 23:05

Часовой пояс: UTC + 3


Вы можете начинать темы
Вы можете отвечать на сообщения
Вы не можете редактировать свои сообщения
Вы не можете удалять свои сообщения
Вы не можете голосовать в опросах
Вы не можете прикреплять файлы к сообщениям
Вы можете скачивать файлы