Жан-Пьер Мельвиль и Ален Делон - 24 часа пополам: Красный круг / Vingt-quatre heures sur la deux: Le Cercle Rouge (Франс Рош / France Roche) [1970, документальный, кинематограф, DVDRip-AVC] AVO (Янкелевич) + Original (Fre) + Sub Rus (Lisok)


Статистика раздачи [Обновить пиров]
Размер:  52 MB   |    Зарегистрирован:  8 месяцев 17 дней   |    Скачан:  0 раз

Полного источника не было: Никогда

Личеров:  3  [  0 KB/s  ]   Подробная статистика пиров
 
   
 
 
 

[Цитировать]

24 часа пополам: Красный круг
Vingt-quatre heures sur la deux: Le Cercle Rouge- Дата/Год выпуска: 1970
Страна: Франция
Жанр: документальный, кинематограф
Продолжительность: 00:03:52
Перевод: Авторский (одноголосый закадровый) Film Prestige (Роман Янкелевич)
Русские субтитры: есть
Оригинальная аудио дорожка: французский
Формат субтитров: softsub (SRT)
Доп. информация о субтитрах: перевод Lisok , инициатор Aleks Punk
Режиссер: Франс Рош / France Roche
Телеканал: inaОписание: Национальный институт аудиовизуальных средств Франции (Institut national de l'audiovisuel) представляет репортаж о фильме режиссера Жана-Пьера Мельвиля "Красный круг", показанный по французскому телевидению через неделю после премьеры фильма, в который вошло интервью с режиссером и исполнителем главной роли актером Аленом Делоном.
Показ канала ORTF от 21 ноября 1970 года. Интервью берет французская актриса, журналист, сценарист и кинокритик Франс Рош / France Roche, которая за время работы на канале Antenne 2 брала интервью у многих знаменитостей, в том числе Брижит Бардо, Кирка Дугласа, Пьера Брассёра, Жана Маре, Анни Жирардо, Симоны Синьоре, Мишеля Пикколи, Жанны Моро и других.
Доп. информация: За предоставленный материал благодарность Aleks Punk, за информацию о русской озвучке благодарность jossb.

качество: DVDRip с DVD9 R5
формат: MKV
Видео: AVC (H.264), 640x480, 25 fps, ~1500 kbps avg, 0.195 bit/pixel
Аудио: AC3, 2 ch, 48 kHz, ~192.00 kbps avg - русский
Аудио: AC3, 2 ch, 48 kHz, ~192.00 kbps avg - французский

Пример субтитров

1
00:00:02,000 --> 00:00:08,928
24 часа пополам: "Красный круг"
первый эфир по фр. TV 21.11.1970
ведущая Франс Рош
2
00:00:11,028 --> 00:00:14,857
Вы сняли "Леон Морен, священник",
сняли "Армию теней".
3
00:00:14,950 --> 00:00:19,571
Один - про Сопротивление,
другой - этюд о характере священника.
4
00:00:19,670 --> 00:00:23,457
Но когда смотришь все ваши фильмы,
понимаешь, что всё-таки
5
00:00:23,550 --> 00:00:27,314
большинство фильмов - так называемые
"детективные". Почему?
6
00:00:27,410 --> 00:00:31,828
Скажем так, я люблю
снимать фильмы,
7
00:00:32,028 --> 00:00:34,314
которые мне хотелось бы
посмотреть.
8
00:00:34,410 --> 00:00:37,742
Например, у нас с Аленом
Делоном есть в планах
9
00:00:37,942 --> 00:00:43,142
снять для кино настоящего
"Арсена Люпена".
10
00:00:43,242 --> 00:00:45,140
Этого ещё никто не сделал.
11
00:00:45,240 --> 00:00:47,542
И всё потому,
что более 41 года
12
00:00:47,640 --> 00:00:50,771
я мечтаю увидеть фильм
об Арсене Люпене, но так и не увидел.
13
00:00:50,870 --> 00:00:53,571
А вы, Ален?
Вы в своей карьере тоже
14
00:00:53,670 --> 00:00:56,514
играли всё больше роли
"плохих парней".
15
00:00:56,610 --> 00:00:59,742
Совершенно неважно, каков персонаж.
Например, в "Красном круге"
16
00:00:59,840 --> 00:01:02,971
если вы спросите у меня,
какой у вас персонаж,
17
00:01:03,070 --> 00:01:05,914
я вам отвечу - волк,
волк одиночка.
18
00:01:06,010 --> 00:01:10,457
Но почему вы, Ален, предпочитаете
именно персонажи одиночек?
19
00:01:10,510 --> 00:01:14,257
Вы - человек, у которого всё
получается, у вас есть свой круг.
20
00:01:14,314 --> 00:01:19,342
Вы находите в себе эту
возможность одиночества?

MediaInfo

Общее
Уникальный идентификатор : 194794188361775520223709854454638095579 (0x928BFEFC34AF544C9336E1B9270AACDB)
Полное имя : E:\My Torrents 2\[apreder]Vingt-quatre_heures_sur_la_deux_Le_Cercle_Rouge(1970)DVDRip.mkv
Формат : Matroska
Версия формата : Version 2
Размер файла : 51,7 Мбайт
Продолжительность : 3 м. 52 с.
Общий поток : 1869 Кбит/сек
Дата кодирования : UTC 2014-10-14 14:26:21
Программа кодирования : mkvmerge v7.2.0 ('On Every Street') 64bit built on Sep 13 2014 15:52:10
Библиотека кодирования : libebml v1.3.0 + libmatroska v1.4.1
Видео
Идентификатор : 1
Формат : AVC
Формат/Информация : Advanced Video Codec
Профиль формата : High@L4.1
Параметр CABAC формата : Да
Параметр ReFrames формата : 16 кадров
Идентификатор кодека : V_MPEG4/ISO/AVC
Продолжительность : 3 м. 52 с.
Битрейт : 1500 Кбит/сек
Ширина : 640 пикселей
Высота : 480 пикселей
Соотношение сторон : 4:3
Режим частоты кадров : Постоянный
Частота кадров : 25,000 кадров/сек
Цветовое пространство : YUV
Субдискретизация насыщенности : 4:2:0
Битовая глубина : 8 бит
Тип развёртки : Прогрессивная
Бит/(Пиксели*Кадры) : 0.195
Размер потока : 40,1 Мбайт (77%)
Библиотека кодирования : x264 core 142 r2431 ac76440
Настройки программы : cabac=1 / ref=16 / deblock=1:-1:-1 / analyse=0x3:0x133 / me=umh / subme=10 / psy=1 / psy_rd=1.00:0.15 / mixed_ref=1 / me_range=24 / chroma_me=1 / trellis=2 / 8x8dct=1 / cqm=0 / deadzone=21,11 / fast_pskip=1 / chroma_qp_offset=-3 / threads=6 / lookahead_threads=1 / sliced_threads=0 / nr=0 / decimate=1 / interlaced=0 / bluray_compat=0 / constrained_intra=0 / bframes=8 / b_pyramid=2 / b_adapt=2 / b_bias=0 / direct=3 / weightb=0 / open_gop=0 / weightp=2 / keyint=250 / keyint_min=25 / scenecut=40 / intra_refresh=0 / rc_lookahead=60 / rc=2pass / mbtree=1 / bitrate=1500 / ratetol=1.0 / qcomp=0.60 / qpmin=0 / qpmax=69 / qpstep=4 / cplxblur=20.0 / qblur=0.5 / vbv_maxrate=62500 / vbv_bufsize=78125 / nal_hrd=none / filler=0 / ip_ratio=1.40 / aq=1:1.00
Default : Да
Forced : Нет
Аудио #1
Идентификатор : 2
Формат : AC-3
Формат/Информация : Audio Coding 3
Расширение режима : CM (complete main)
Параметр Endianness формата : Big
Идентификатор кодека : A_AC3
Продолжительность : 3 м. 52 с.
Вид битрейта : Постоянный
Битрейт : 192 Кбит/сек
Каналы : 2 канала
Расположение каналов : Front: L R
Частота : 48,0 КГц
Битовая глубина : 16 бит
Метод сжатия : С потерями
Задержка видео : 16 мс.
Размер потока : 5,32 Мбайт (10%)
Язык : Russian
Default : Да
Forced : Нет
Аудио #2
Идентификатор : 3
Формат : AC-3
Формат/Информация : Audio Coding 3
Расширение режима : CM (complete main)
Параметр Endianness формата : Big
Идентификатор кодека : A_AC3
Продолжительность : 3 м. 52 с.
Вид битрейта : Постоянный
Битрейт : 192 Кбит/сек
Каналы : 2 канала
Расположение каналов : Front: L R
Частота : 48,0 КГц
Битовая глубина : 16 бит
Метод сжатия : С потерями
Задержка видео : 16 мс.
Размер потока : 5,32 Мбайт (10%)
Язык : French
Default : Нет
Forced : Нет
Текст
Идентификатор : 4
Формат : UTF-8
Идентификатор кодека : S_TEXT/UTF8
Идентификатор кодека/Информация : UTF-8 Plain Text
Язык : Russian
Default : Нет
Forced : Нет

Скриншоты

Резервные скриншоты

-[1'809]
[teatrix.ru].t19232.torrent 
Торрент: Зарегистрирован [ 2016-03-18 12:52 ] · 2EF6604EBC4CBA27E32B04FFA0BFA5E52D651273

Скачать .torrent

Скачать

17 KB

Статус: проверено
Скачан: 0 раз
Размер: 52 MB
terms.php



Показать сообщения:    

Текущее время: 04-Дек 19:22

Часовой пояс: UTC + 3


Вы не можете начинать темы
Вы не можете отвечать на сообщения
Вы не можете редактировать свои сообщения
Вы не можете удалять свои сообщения
Вы не можете голосовать в опросах
Вы не можете прикреплять файлы к сообщениям
Вы можете скачивать файлы