(Classical, Baroque) Henry Purcell - Ten Sonatas in Four Parts (The King's Consort) - 2014, FLAC (tracks+.cue) lossless


 

[Цитировать]

PURCELLTEN SONATAS IN FOUR PARTSTHE KING'S CONSORT- Жанр: Classical, Baroque
Страна-производитель диска: EU
Год издания диска: 2014
Издатель (лейбл): VIVAT
Номер по каталогу: 106
Дата записи: 2013
Аудиокодек: FLAC
Тип рипа: tracks+.cue
Битрейт аудио: lossless
Продолжительность: 01:17:55
Источник: IsraBox
Купить: Presto Classical
Наличие сканов: обложки и буклет (pdf)-Исполнители:
Cecillia Bernardini - violin
Huw Daniel - violin
Susanne Heinrich - bass viol
Lynda Sayce - theorbo
Robert King - chamber organ & harpsichord

Recorded at The Menuhin Hall, Surrey, on 27-29 October 2013-Треклист-Sonata in A minor Z80401. I. Grave - Largo (3:11)
02. II. Adagio - Canzona - Vivace - Grave (4:33)
Sonata in D minor Z805
03. I. Adagio - Canzona - Adagio (4:49)
04. II. Vivace - Largo (4:44)
Sonata in G minor Z806
05. I. [Andante] - Canzona (3:01)
06. II. Largo - Adagio - Presto - Allegro - Adagio (5:32)
Sonata in C major Z808
07. I. Vivace - Largo - Grave (3:00)
08. II. Canzona - Allegro - Adagio (4:17)
Sonata in F major Z810
09. I. [Allegro] - Largo (3:01)
10. II. Canzona - Grave - Allegro (4:48)
Sonata in D major Z811
11. I. Adagio - Canzona (2:57)
12. II. Grave - Largo - Allegro (3:26)
Sonata in B minor Z802
13. I. Adagio - Canzona (2:22)
14. II. Largo - Vivace - Grave (5:14)
Sonata in G minor Z809
15. I. Adagio - Canzona (3:21)
16. II. Grave - Largo - Vivace (4:35)
Sonata in E flat major Z803
17. I. Adagio - Canzona (3:46)
18. II. Grave - Largo - Allegro (4:20)
Sonata in G minor Z807
19. Adagio (6:57)
-

ОтчётыЛог создания рипа

X Lossless Decoder version 20140504 (147.0)
XLD extraction logfile from 2014-10-09 14:02:53 +0200
The King's Consort / Purcell - Ten Sonatas in Four Parts - The King's Consort [Vivat]
Used drive : TSSTcorp CDDVDW SE-S084D (revision TS01)
Media type : Pressed CD
Ripper mode : XLD Secure Ripper
Disable audio cache : OK for the drive with a cache less than 1375KiB
Make use of C2 pointers : NO
Read offset correction : 6
Max retry count : 100
Gap status : Analyzed, Appended (except HTOA)
TOC of the extracted CD
Track | Start | Length | Start sector | End sector
---------------------------------------------------------
1 | 00:00:00 | 03:11:34 | 0 | 14358
2 | 03:11:34 | 04:33:21 | 14359 | 34854
3 | 07:44:55 | 04:49:17 | 34855 | 56546
4 | 12:33:72 | 04:44:07 | 56547 | 77853
5 | 17:18:04 | 03:01:25 | 77854 | 91453
6 | 20:19:29 | 05:31:54 | 91454 | 116332
7 | 25:51:08 | 03:00:23 | 116333 | 129855
8 | 28:51:31 | 04:16:38 | 129856 | 149093
9 | 33:07:69 | 03:01:32 | 149094 | 162700
10 | 36:09:26 | 04:47:52 | 162701 | 184277
11 | 40:57:03 | 02:57:03 | 184278 | 197555
12 | 43:54:06 | 03:25:58 | 197556 | 212988
13 | 47:19:64 | 02:22:30 | 212989 | 223668
14 | 49:42:19 | 05:14:31 | 223669 | 247249
15 | 54:56:50 | 03:20:45 | 247250 | 262294
16 | 58:17:20 | 04:35:28 | 262295 | 282947
17 | 62:52:48 | 03:45:50 | 282948 | 299872
18 | 66:38:23 | 04:20:11 | 299873 | 319383
19 | 70:58:34 | 06:56:38 | 319384 | 350621
AccurateRip Summary
Disc not found in AccurateRip DB.
All Tracks
Album gain : 0.45 dB
Peak : 0.936737
Statistics
Read error : 0
Jitter error (maybe fixed) : 0
Retry sector count : 0
Damaged sector count : 0
Track 01
Filename : /Volumes/4TB 1/CD rips/Composers/Henry Purcell/Purcell - Ten Sonatas in Four Parts - The King's Consort [Vivat]/01 Sonata in A minor Z804: I. Grave - Largo.flac
Pre-gap length : 00:02:00
Track gain : 0.18 dB
Peak : 0.710724
CRC32 hash (test run) : ADB7C5FE
CRC32 hash : ADB7C5FE
CRC32 hash (skip zero) : 12115796
AccurateRip v1 signature : D918954B
AccurateRip v2 signature : 5E4B366E
->Track not present in AccurateRip database.
Statistics
Read error : 0
Jitter error (maybe fixed) : 0
Retry sector count : 0
Damaged sector count : 0
Track 02
Filename : /Volumes/4TB 1/CD rips/Composers/Henry Purcell/Purcell - Ten Sonatas in Four Parts - The King's Consort [Vivat]/02 Sonata in A minor Z804: II. Adagio - Canzona - Vivace - Grave.flac
Track gain : -0.10 dB
Peak : 0.842957
CRC32 hash (test run) : 5B1C2DB9
CRC32 hash : 5B1C2DB9
CRC32 hash (skip zero) : 96AB62D2
AccurateRip v1 signature : D57F19A7
AccurateRip v2 signature : B1165D5A
->Track not present in AccurateRip database.
Statistics
Read error : 0
Jitter error (maybe fixed) : 0
Retry sector count : 0
Damaged sector count : 0
Track 03
Filename : /Volumes/4TB 1/CD rips/Composers/Henry Purcell/Purcell - Ten Sonatas in Four Parts - The King's Consort [Vivat]/03 Sonata in D minor Z805: I. Adagio - Canzona - Adagio.flac
Track gain : 0.25 dB
Peak : 0.734589
CRC32 hash (test run) : 9046CD10
CRC32 hash : 9046CD10
CRC32 hash (skip zero) : E0DEC698
AccurateRip v1 signature : 3199F431
AccurateRip v2 signature : C54F8E9C
->Track not present in AccurateRip database.
Statistics
Read error : 0
Jitter error (maybe fixed) : 0
Retry sector count : 0
Damaged sector count : 0
Track 04
Filename : /Volumes/4TB 1/CD rips/Composers/Henry Purcell/Purcell - Ten Sonatas in Four Parts - The King's Consort [Vivat]/04 Sonata in D minor Z805: II. Vivace - Largo.flac
Track gain : 0.46 dB
Peak : 0.884247
CRC32 hash (test run) : 55CAFFDE
CRC32 hash : 55CAFFDE
CRC32 hash (skip zero) : 36C5DE64
AccurateRip v1 signature : B52D137E
AccurateRip v2 signature : 66395331
->Track not present in AccurateRip database.
Statistics
Read error : 0
Jitter error (maybe fixed) : 0
Retry sector count : 0
Damaged sector count : 0
Track 05
Filename : /Volumes/4TB 1/CD rips/Composers/Henry Purcell/Purcell - Ten Sonatas in Four Parts - The King's Consort [Vivat]/05 Sonata in G minor Z806: I. [Andante] - Canzona.flac
Track gain : 0.30 dB
Peak : 0.610138
CRC32 hash (test run) : A9F13991
CRC32 hash : A9F13991
CRC32 hash (skip zero) : 797CF614
AccurateRip v1 signature : 1800B197
AccurateRip v2 signature : 9A8ABDBD
->Track not present in AccurateRip database.
Statistics
Read error : 0
Jitter error (maybe fixed) : 0
Retry sector count : 0
Damaged sector count : 0
Track 06
Filename : /Volumes/4TB 1/CD rips/Composers/Henry Purcell/Purcell - Ten Sonatas in Four Parts - The King's Consort [Vivat]/06 Sonata in G minor Z806: II. Largo - Adagio - Presto - Allegro - Adagio.flac
Track gain : 0.02 dB
Peak : 0.742645
CRC32 hash (test run) : AE607AFA
CRC32 hash : AE607AFA
CRC32 hash (skip zero) : FD6161A7
AccurateRip v1 signature : 8E2CDB88
AccurateRip v2 signature : 490EBD44
->Track not present in AccurateRip database.
Statistics
Read error : 0
Jitter error (maybe fixed) : 0
Retry sector count : 0
Damaged sector count : 0
Track 07
Filename : /Volumes/4TB 1/CD rips/Composers/Henry Purcell/Purcell - Ten Sonatas in Four Parts - The King's Consort [Vivat]/07 Sonata in C major Z808: I. Vivace - Largo - Grave.flac
Track gain : -0.11 dB
Peak : 0.778046
CRC32 hash (test run) : C97FBCF1
CRC32 hash : C97FBCF1
CRC32 hash (skip zero) : 6CB1B510
AccurateRip v1 signature : 355150F4
AccurateRip v2 signature : AE1A6B2C
->Track not present in AccurateRip database.
Statistics
Read error : 0
Jitter error (maybe fixed) : 0
Retry sector count : 0
Damaged sector count : 0
Track 08
Filename : /Volumes/4TB 1/CD rips/Composers/Henry Purcell/Purcell - Ten Sonatas in Four Parts - The King's Consort [Vivat]/08 Sonata in C major Z808: II. Canzona - Allegro - Adagio.flac
Track gain : -0.22 dB
Peak : 0.690765
CRC32 hash (test run) : 5B3D87C2
CRC32 hash : 5B3D87C2
CRC32 hash (skip zero) : C5BC9D15
AccurateRip v1 signature : 5B708765
AccurateRip v2 signature : 1016689C
->Track not present in AccurateRip database.
Statistics
Read error : 0
Jitter error (maybe fixed) : 0
Retry sector count : 0
Damaged sector count : 0
Track 09
Filename : /Volumes/4TB 1/CD rips/Composers/Henry Purcell/Purcell - Ten Sonatas in Four Parts - The King's Consort [Vivat]/09 Sonata in F major Z810: I. [Allegro] - Largo.flac
Track gain : 0.55 dB
Peak : 0.681183
CRC32 hash (test run) : 863E3907
CRC32 hash : 863E3907
CRC32 hash (skip zero) : 15622849
AccurateRip v1 signature : 2C743A6D
AccurateRip v2 signature : 13B17254
->Track not present in AccurateRip database.
Statistics
Read error : 0
Jitter error (maybe fixed) : 0
Retry sector count : 0
Damaged sector count : 0
Track 10
Filename : /Volumes/4TB 1/CD rips/Composers/Henry Purcell/Purcell - Ten Sonatas in Four Parts - The King's Consort [Vivat]/10 Sonata in F major Z810: II. Canzona - Grave - Allegro.flac
Track gain : 0.46 dB
Peak : 0.693634
CRC32 hash (test run) : A59CD748
CRC32 hash : A59CD748
CRC32 hash (skip zero) : 110E2D1A
AccurateRip v1 signature : 7499B49C
AccurateRip v2 signature : 115A9545
->Track not present in AccurateRip database.
Statistics
Read error : 0
Jitter error (maybe fixed) : 0
Retry sector count : 0
Damaged sector count : 0
Track 11
Filename : /Volumes/4TB 1/CD rips/Composers/Henry Purcell/Purcell - Ten Sonatas in Four Parts - The King's Consort [Vivat]/11 Sonata in D major Z811: I. Adagio - Canzona.flac
Track gain : -0.69 dB
Peak : 0.865570
CRC32 hash (test run) : 7B6E8729
CRC32 hash : 7B6E8729
CRC32 hash (skip zero) : 6737F041
AccurateRip v1 signature : 7A438412
AccurateRip v2 signature : 993DA3F8
->Track not present in AccurateRip database.
Statistics
Read error : 0
Jitter error (maybe fixed) : 0
Retry sector count : 0
Damaged sector count : 0
Track 12
Filename : /Volumes/4TB 1/CD rips/Composers/Henry Purcell/Purcell - Ten Sonatas in Four Parts - The King's Consort [Vivat]/12 Sonata in D major Z811: II. Grave - Largo - Allegro.flac
Track gain : 0.98 dB
Peak : 0.720245
CRC32 hash (test run) : 1ABBDEAC
CRC32 hash : 1ABBDEAC
CRC32 hash (skip zero) : D8C7FF91
AccurateRip v1 signature : F729321C
AccurateRip v2 signature : 1D92A7AB
->Track not present in AccurateRip database.
Statistics
Read error : 0
Jitter error (maybe fixed) : 0
Retry sector count : 0
Damaged sector count : 0
Track 13
Filename : /Volumes/4TB 1/CD rips/Composers/Henry Purcell/Purcell - Ten Sonatas in Four Parts - The King's Consort [Vivat]/13 Sonata in B minor Z802: I. Adagio - Canzona.flac
Track gain : 0.96 dB
Peak : 0.596680
CRC32 hash (test run) : DCFF0B3B
CRC32 hash : DCFF0B3B
CRC32 hash (skip zero) : 5EAC87E5
AccurateRip v1 signature : A49F240C
AccurateRip v2 signature : 0D38C0B5
->Track not present in AccurateRip database.
Statistics
Read error : 0
Jitter error (maybe fixed) : 0
Retry sector count : 0
Damaged sector count : 0
Track 14
Filename : /Volumes/4TB 1/CD rips/Composers/Henry Purcell/Purcell - Ten Sonatas in Four Parts - The King's Consort [Vivat]/14 Sonata in B minor Z802: II. Largo - Vivace - Grave.flac
Track gain : 1.20 dB
Peak : 0.631226
CRC32 hash (test run) : 116BAAE7
CRC32 hash : 116BAAE7
CRC32 hash (skip zero) : 09DA778E
AccurateRip v1 signature : C4DFD7EA
AccurateRip v2 signature : DFFA243D
->Track not present in AccurateRip database.
Statistics
Read error : 0
Jitter error (maybe fixed) : 0
Retry sector count : 0
Damaged sector count : 0
Track 15
Filename : /Volumes/4TB 1/CD rips/Composers/Henry Purcell/Purcell - Ten Sonatas in Four Parts - The King's Consort [Vivat]/15 Sonata in G minor Z809: I. Adagio - Canzona.flac
Track gain : -0.01 dB
Peak : 0.610016
CRC32 hash (test run) : 3642219A
CRC32 hash : 3642219A
CRC32 hash (skip zero) : 8A931E06
AccurateRip v1 signature : D25CD603
AccurateRip v2 signature : F5ED3FE7
->Track not present in AccurateRip database.
Statistics
Read error : 0
Jitter error (maybe fixed) : 0
Retry sector count : 0
Damaged sector count : 0
Track 16
Filename : /Volumes/4TB 1/CD rips/Composers/Henry Purcell/Purcell - Ten Sonatas in Four Parts - The King's Consort [Vivat]/16 Sonata in G minor Z809: II. Grave - Largo - Vivace.flac
Track gain : 0.85 dB
Peak : 0.659393
CRC32 hash (test run) : 8D0565BD
CRC32 hash : 8D0565BD
CRC32 hash (skip zero) : 7F8BAE94
AccurateRip v1 signature : 4D503B0E
AccurateRip v2 signature : 5A970A46
->Track not present in AccurateRip database.
Statistics
Read error : 0
Jitter error (maybe fixed) : 0
Retry sector count : 0
Damaged sector count : 0
Track 17
Filename : /Volumes/4TB 1/CD rips/Composers/Henry Purcell/Purcell - Ten Sonatas in Four Parts - The King's Consort [Vivat]/17 Sonata in E flat major Z803: I. Adagio - Canzona.flac
Track gain : 0.91 dB
Peak : 0.603668
CRC32 hash (test run) : 01BD54BA
CRC32 hash : 01BD54BA
CRC32 hash (skip zero) : C8B2EF78
AccurateRip v1 signature : 8DB0DF90
AccurateRip v2 signature : 708DE6F5
->Track not present in AccurateRip database.
Statistics
Read error : 0
Jitter error (maybe fixed) : 0
Retry sector count : 0
Damaged sector count : 0
Track 18
Filename : /Volumes/4TB 1/CD rips/Composers/Henry Purcell/Purcell - Ten Sonatas in Four Parts - The King's Consort [Vivat]/18 Sonata in E flat major Z803: II. Grave - Largo - Allegro.flac
Track gain : 1.41 dB
Peak : 0.609406
CRC32 hash (test run) : DE4D69F3
CRC32 hash : DE4D69F3
CRC32 hash (skip zero) : 5E743E5E
AccurateRip v1 signature : 21D5EB71
AccurateRip v2 signature : 88E892CB
->Track not present in AccurateRip database.
Statistics
Read error : 0
Jitter error (maybe fixed) : 0
Retry sector count : 0
Damaged sector count : 0
Track 19
Filename : /Volumes/4TB 1/CD rips/Composers/Henry Purcell/Purcell - Ten Sonatas in Four Parts - The King's Consort [Vivat]/19 Sonata in G minor Z807: Adagio.flac
Track gain : 1.00 dB
Peak : 0.936737
CRC32 hash (test run) : E30106B8
CRC32 hash : E30106B8
CRC32 hash (skip zero) : 5B6E4361
AccurateRip v1 signature : AC6901BF
AccurateRip v2 signature : 870C951E
->Track not present in AccurateRip database.
Statistics
Read error : 0
Jitter error (maybe fixed) : 0
Retry sector count : 0
Damaged sector count : 0
No errors occurred
End of status report
-----BEGIN XLD SIGNATURE-----
k.NiUqt9FcGhfX3Lf.XZj2wZZqlxTdOiByMUO5RG_JhaOyoyP5i_1dPze4Lj21P6bMZW8OHnfTPdqNpWIecJYG1nbMI_G02Mv88iSBK
-----END XLD SIGNATURE-----

Содержание индексной карты (.CUE)

TITLE "Purcell - Ten Sonatas in Four Parts - The King's Consort [Vivat]"
PERFORMER "The King's Consort"
CATALOG 0799439114685
REM GENRE "Classical"
REM DATE "2013"
REM DISCNUMBER 1
REM TOTALDISCS 1
REM DISCID 1D124213
REM REPLAYGAIN_ALBUM_GAIN 0.45 dB
REM REPLAYGAIN_ALBUM_PEAK 0.936737
FILE "01 Sonata in A minor Z804: I. Grave - Largo.flac" WAVE
TRACK 01 AUDIO
TITLE "Sonata in A minor Z804: I. Grave - Largo"
PERFORMER "The King's Consort"
SONGWRITER "Henry Purcell"
ISRC GBQG51400021
REM COMMENT "The King's Consort (Violin: Cecilia Bernardini, Huw Daniel/Bass Viol: Susanne Heinrich/Theorbo: Lynda Sayce/Chamber Organ, Harpsichord: Robert King. Recorded at The Menuhin Hall, Surrey, on 27-29 October 2013."
REM REPLAYGAIN_TRACK_GAIN 0.18 dB
REM REPLAYGAIN_TRACK_PEAK 0.710724
INDEX 01 00:00:00
FILE "02 Sonata in A minor Z804: II. Adagio - Canzona - Vivace - Grave.flac" WAVE
TRACK 02 AUDIO
TITLE "Sonata in A minor Z804: II. Adagio - Canzona - Vivace - Grave"
PERFORMER "The King's Consort"
SONGWRITER "Henry Purcell"
ISRC GBQG51400022
REM COMMENT "The King's Consort (Violin: Cecilia Bernardini, Huw Daniel/Bass Viol: Susanne Heinrich/Theorbo: Lynda Sayce/Chamber Organ, Harpsichord: Robert King. Recorded at The Menuhin Hall, Surrey, on 27-29 October 2013."
REM REPLAYGAIN_TRACK_GAIN -0.10 dB
REM REPLAYGAIN_TRACK_PEAK 0.842957
INDEX 01 00:00:00
FILE "03 Sonata in D minor Z805: I. Adagio - Canzona - Adagio.flac" WAVE
TRACK 03 AUDIO
TITLE "Sonata in D minor Z805: I. Adagio - Canzona - Adagio"
PERFORMER "The King's Consort"
SONGWRITER "Henry Purcell"
ISRC GBQG51400023
REM COMMENT "The King's Consort (Violin: Cecilia Bernardini, Huw Daniel/Bass Viol: Susanne Heinrich/Theorbo: Lynda Sayce/Chamber Organ, Harpsichord: Robert King. Recorded at The Menuhin Hall, Surrey, on 27-29 October 2013."
REM REPLAYGAIN_TRACK_GAIN 0.25 dB
REM REPLAYGAIN_TRACK_PEAK 0.734589
INDEX 01 00:00:00
FILE "04 Sonata in D minor Z805: II. Vivace - Largo.flac" WAVE
TRACK 04 AUDIO
TITLE "Sonata in D minor Z805: II. Vivace - Largo"
PERFORMER "The King's Consort"
SONGWRITER "Henry Purcell"
ISRC GBQG51400024
REM COMMENT "The King's Consort (Violin: Cecilia Bernardini, Huw Daniel/Bass Viol: Susanne Heinrich/Theorbo: Lynda Sayce/Chamber Organ, Harpsichord: Robert King. Recorded at The Menuhin Hall, Surrey, on 27-29 October 2013."
REM REPLAYGAIN_TRACK_GAIN 0.46 dB
REM REPLAYGAIN_TRACK_PEAK 0.884247
INDEX 01 00:00:00
FILE "05 Sonata in G minor Z806: I. [Andante] - Canzona.flac" WAVE
TRACK 05 AUDIO
TITLE "Sonata in G minor Z806: I. [Andante] - Canzona"
PERFORMER "The King's Consort"
SONGWRITER "Henry Purcell"
ISRC GBQG51400025
REM COMMENT "The King's Consort (Violin: Cecilia Bernardini, Huw Daniel/Bass Viol: Susanne Heinrich/Theorbo: Lynda Sayce/Chamber Organ, Harpsichord: Robert King. Recorded at The Menuhin Hall, Surrey, on 27-29 October 2013."
REM REPLAYGAIN_TRACK_GAIN 0.30 dB
REM REPLAYGAIN_TRACK_PEAK 0.610138
INDEX 01 00:00:00
FILE "06 Sonata in G minor Z806: II. Largo - Adagio - Presto - Allegro - Adagio.flac" WAVE
TRACK 06 AUDIO
TITLE "Sonata in G minor Z806: II. Largo - Adagio - Presto - Allegro - Adagio"
PERFORMER "The King's Consort"
SONGWRITER "Henry Purcell"
ISRC GBQG51400026
REM COMMENT "The King's Consort (Violin: Cecilia Bernardini, Huw Daniel/Bass Viol: Susanne Heinrich/Theorbo: Lynda Sayce/Chamber Organ, Harpsichord: Robert King. Recorded at The Menuhin Hall, Surrey, on 27-29 October 2013."
REM REPLAYGAIN_TRACK_GAIN 0.02 dB
REM REPLAYGAIN_TRACK_PEAK 0.742645
INDEX 01 00:00:00
FILE "07 Sonata in C major Z808: I. Vivace - Largo - Grave.flac" WAVE
TRACK 07 AUDIO
TITLE "Sonata in C major Z808: I. Vivace - Largo - Grave"
PERFORMER "The King's Consort"
SONGWRITER "Henry Purcell"
ISRC GBQG51400027
REM COMMENT "The King's Consort (Violin: Cecilia Bernardini, Huw Daniel/Bass Viol: Susanne Heinrich/Theorbo: Lynda Sayce/Chamber Organ, Harpsichord: Robert King. Recorded at The Menuhin Hall, Surrey, on 27-29 October 2013."
REM REPLAYGAIN_TRACK_GAIN -0.11 dB
REM REPLAYGAIN_TRACK_PEAK 0.778046
INDEX 01 00:00:00
FILE "08 Sonata in C major Z808: II. Canzona - Allegro - Adagio.flac" WAVE
TRACK 08 AUDIO
TITLE "Sonata in C major Z808: II. Canzona - Allegro - Adagio"
PERFORMER "The King's Consort"
SONGWRITER "Henry Purcell"
ISRC GBQG51400028
REM COMMENT "The King's Consort (Violin: Cecilia Bernardini, Huw Daniel/Bass Viol: Susanne Heinrich/Theorbo: Lynda Sayce/Chamber Organ, Harpsichord: Robert King. Recorded at The Menuhin Hall, Surrey, on 27-29 October 2013."
REM REPLAYGAIN_TRACK_GAIN -0.22 dB
REM REPLAYGAIN_TRACK_PEAK 0.690765
INDEX 01 00:00:00
FILE "09 Sonata in F major Z810: I. [Allegro] - Largo.flac" WAVE
TRACK 09 AUDIO
TITLE "Sonata in F major Z810: I. [Allegro] - Largo"
PERFORMER "The King's Consort"
SONGWRITER "Henry Purcell"
ISRC GBQG51400029
REM COMMENT "The King's Consort (Violin: Cecilia Bernardini, Huw Daniel/Bass Viol: Susanne Heinrich/Theorbo: Lynda Sayce/Chamber Organ, Harpsichord: Robert King. Recorded at The Menuhin Hall, Surrey, on 27-29 October 2013."
REM REPLAYGAIN_TRACK_GAIN 0.55 dB
REM REPLAYGAIN_TRACK_PEAK 0.681183
INDEX 01 00:00:00
FILE "10 Sonata in F major Z810: II. Canzona - Grave - Allegro.flac" WAVE
TRACK 10 AUDIO
TITLE "Sonata in F major Z810: II. Canzona - Grave - Allegro"
PERFORMER "The King's Consort"
SONGWRITER "Henry Purcell"
ISRC GBQG51400030
REM COMMENT "The King's Consort (Violin: Cecilia Bernardini, Huw Daniel/Bass Viol: Susanne Heinrich/Theorbo: Lynda Sayce/Chamber Organ, Harpsichord: Robert King. Recorded at The Menuhin Hall, Surrey, on 27-29 October 2013."
REM REPLAYGAIN_TRACK_GAIN 0.46 dB
REM REPLAYGAIN_TRACK_PEAK 0.693634
INDEX 01 00:00:00
FILE "11 Sonata in D major Z811: I. Adagio - Canzona.flac" WAVE
TRACK 11 AUDIO
TITLE "Sonata in D major Z811: I. Adagio - Canzona"
PERFORMER "The King's Consort"
SONGWRITER "Henry Purcell"
ISRC GBQG51400031
REM COMMENT "The King's Consort (Violin: Cecilia Bernardini, Huw Daniel/Bass Viol: Susanne Heinrich/Theorbo: Lynda Sayce/Chamber Organ, Harpsichord: Robert King. Recorded at The Menuhin Hall, Surrey, on 27-29 October 2013."
REM REPLAYGAIN_TRACK_GAIN -0.69 dB
REM REPLAYGAIN_TRACK_PEAK 0.865570
INDEX 01 00:00:00
FILE "12 Sonata in D major Z811: II. Grave - Largo - Allegro.flac" WAVE
TRACK 12 AUDIO
TITLE "Sonata in D major Z811: II. Grave - Largo - Allegro"
PERFORMER "The King's Consort"
SONGWRITER "Henry Purcell"
ISRC GBQG51400032
REM COMMENT "The King's Consort (Violin: Cecilia Bernardini, Huw Daniel/Bass Viol: Susanne Heinrich/Theorbo: Lynda Sayce/Chamber Organ, Harpsichord: Robert King. Recorded at The Menuhin Hall, Surrey, on 27-29 October 2013."
REM REPLAYGAIN_TRACK_GAIN 0.98 dB
REM REPLAYGAIN_TRACK_PEAK 0.720245
INDEX 01 00:00:00
FILE "13 Sonata in B minor Z802: I. Adagio - Canzona.flac" WAVE
TRACK 13 AUDIO
TITLE "Sonata in B minor Z802: I. Adagio - Canzona"
PERFORMER "The King's Consort"
SONGWRITER "Henry Purcell"
ISRC GBQG51400033
REM COMMENT "The King's Consort (Violin: Cecilia Bernardini, Huw Daniel/Bass Viol: Susanne Heinrich/Theorbo: Lynda Sayce/Chamber Organ, Harpsichord: Robert King. Recorded at The Menuhin Hall, Surrey, on 27-29 October 2013."
REM REPLAYGAIN_TRACK_GAIN 0.96 dB
REM REPLAYGAIN_TRACK_PEAK 0.596680
INDEX 01 00:00:00
FILE "14 Sonata in B minor Z802: II. Largo - Vivace - Grave.flac" WAVE
TRACK 14 AUDIO
TITLE "Sonata in B minor Z802: II. Largo - Vivace - Grave"
PERFORMER "The King's Consort"
SONGWRITER "Henry Purcell"
ISRC GBQG51400034
REM COMMENT "The King's Consort (Violin: Cecilia Bernardini, Huw Daniel/Bass Viol: Susanne Heinrich/Theorbo: Lynda Sayce/Chamber Organ, Harpsichord: Robert King. Recorded at The Menuhin Hall, Surrey, on 27-29 October 2013."
REM REPLAYGAIN_TRACK_GAIN 1.20 dB
REM REPLAYGAIN_TRACK_PEAK 0.631226
INDEX 01 00:00:00
FILE "15 Sonata in G minor Z809: I. Adagio - Canzona.flac" WAVE
TRACK 15 AUDIO
TITLE "Sonata in G minor Z809: I. Adagio - Canzona"
PERFORMER "The King's Consort"
SONGWRITER "Henry Purcell"
ISRC GBQG51400035
REM COMMENT "The King's Consort (Violin: Cecilia Bernardini, Huw Daniel/Bass Viol: Susanne Heinrich/Theorbo: Lynda Sayce/Chamber Organ, Harpsichord: Robert King. Recorded at The Menuhin Hall, Surrey, on 27-29 October 2013."
REM REPLAYGAIN_TRACK_GAIN -0.01 dB
REM REPLAYGAIN_TRACK_PEAK 0.610016
INDEX 01 00:00:00
FILE "16 Sonata in G minor Z809: II. Grave - Largo - Vivace.flac" WAVE
TRACK 16 AUDIO
TITLE "Sonata in G minor Z809: II. Grave - Largo - Vivace"
PERFORMER "The King's Consort"
SONGWRITER "Henry Purcell"
ISRC GBQG51400036
REM COMMENT "The King's Consort (Violin: Cecilia Bernardini, Huw Daniel/Bass Viol: Susanne Heinrich/Theorbo: Lynda Sayce/Chamber Organ, Harpsichord: Robert King. Recorded at The Menuhin Hall, Surrey, on 27-29 October 2013."
REM REPLAYGAIN_TRACK_GAIN 0.85 dB
REM REPLAYGAIN_TRACK_PEAK 0.659393
INDEX 01 00:00:00
FILE "17 Sonata in E flat major Z803: I. Adagio - Canzona.flac" WAVE
TRACK 17 AUDIO
TITLE "Sonata in E flat major Z803: I. Adagio - Canzona"
PERFORMER "The King's Consort"
SONGWRITER "Henry Purcell"
ISRC GBQG51400037
REM COMMENT "The King's Consort (Violin: Cecilia Bernardini, Huw Daniel/Bass Viol: Susanne Heinrich/Theorbo: Lynda Sayce/Chamber Organ, Harpsichord: Robert King. Recorded at The Menuhin Hall, Surrey, on 27-29 October 2013."
REM REPLAYGAIN_TRACK_GAIN 0.91 dB
REM REPLAYGAIN_TRACK_PEAK 0.603668
INDEX 01 00:00:00
FILE "18 Sonata in E flat major Z803: II. Grave - Largo - Allegro.flac" WAVE
TRACK 18 AUDIO
TITLE "Sonata in E flat major Z803: II. Grave - Largo - Allegro"
PERFORMER "The King's Consort"
SONGWRITER "Henry Purcell"
ISRC GBQG51400038
REM COMMENT "The King's Consort (Violin: Cecilia Bernardini, Huw Daniel/Bass Viol: Susanne Heinrich/Theorbo: Lynda Sayce/Chamber Organ, Harpsichord: Robert King. Recorded at The Menuhin Hall, Surrey, on 27-29 October 2013."
REM REPLAYGAIN_TRACK_GAIN 1.41 dB
REM REPLAYGAIN_TRACK_PEAK 0.609406
INDEX 01 00:00:00
FILE "19 Sonata in G minor Z807: Adagio.flac" WAVE
TRACK 19 AUDIO
TITLE "Sonata in G minor Z807: Adagio"
PERFORMER "The King's Consort"
SONGWRITER "Henry Purcell"
ISRC GBQG51400039
REM COMMENT "The King's Consort (Violin: Cecilia Bernardini, Huw Daniel/Bass Viol: Susanne Heinrich/Theorbo: Lynda Sayce/Chamber Organ, Harpsichord: Robert King. Recorded at The Menuhin Hall, Surrey, on 27-29 October 2013."
REM REPLAYGAIN_TRACK_GAIN 1.00 dB
REM REPLAYGAIN_TRACK_PEAK 0.936737
INDEX 01 00:00:00

Лог проверки качества

-----------------------
DON'T MODIFY THIS FILE
-----------------------
PERFORMER: auCDtect Task Manager, ver. 1.6.0 RC1 build 1.6.0.1
Copyright (c) 2008-2010 y-soft. All rights reserved
http://y-soft.org
ANALYZER: auCDtect: CD records authenticity detector, version 0.8.2
Copyright (c) 2004 Oleg Berngardt. All rights reserved.
Copyright (c) 2004 Alexander Djourik. All rights reserved.
FILE: 19 Sonata in G minor Z807: Adagio.flac
Size: 37530436 Hash: 3AE9B07E9DD2D30BE1B274F7FB6F3235 Accuracy: -m0
Conclusion: CDDA 100%
Signature: B0A25B9FE7CADE0BFFCCF782256BA6B355E890AB
FILE: 18 Sonata in E flat major Z803: II. Grave - Largo - Allegro.flac
Size: 21855118 Hash: 41F118BBA114E22692D18FB80C741485 Accuracy: -m0
Conclusion: CDDA 85%
Signature: BA36909950FB2865C0E1BA518015D537D456EB69
FILE: 17 Sonata in E flat major Z803: I. Adagio - Canzona.flac
Size: 20531844 Hash: 3DF1196E9BCD8C1F695A39AAF2F597C3 Accuracy: -m0
Conclusion: CDDA 92%
Signature: 38645656DBBBEB1E9DD5389C416D43A6801133C0
FILE: 16 Sonata in G minor Z809: II. Grave - Largo - Vivace.flac
Size: 25317132 Hash: 3B39B1E533DAF77AEF1762C7BB288500 Accuracy: -m0
Conclusion: CDDA 100%
Signature: 1600E1D93F3CEEFA54AB2475BBAF731C4EA2F708
FILE: 15 Sonata in G minor Z809: I. Adagio - Canzona.flac
Size: 19515663 Hash: CBC86D6395DE0295DFD98558685CA0D8 Accuracy: -m0
Conclusion: CDDA 100%
Signature: 33BACC6325B2899A04745461639AB28B8BA0DE1D
FILE: 14 Sonata in B minor Z802: II. Largo - Vivace - Grave.flac
Size: 27732381 Hash: EDC697F8ABDBEAA2E581028EF9A5A07D Accuracy: -m0
Conclusion: CDDA 100%
Signature: 8F8B014D5E0DF9457C07D007EF4E50E362627A46
FILE: 13 Sonata in B minor Z802: I. Adagio - Canzona.flac
Size: 13281169 Hash: 4D98E517A62C2654F14955E36C35B1BF Accuracy: -m0
Conclusion: CDDA 100%
Signature: FB22522AD8CD4178BD9149B914954780033E8EC0
FILE: 12 Sonata in D major Z811: II. Grave - Largo - Allegro.flac
Size: 17855194 Hash: FCBD0FB825CC968D452B306C6CB1BAC6 Accuracy: -m0
Conclusion: CDDA 100%
Signature: 64722974D72C482275208B136FCB35B5D664A0B6
FILE: 11 Sonata in D major Z811: I. Adagio - Canzona.flac
Size: 17348285 Hash: 9A76A150C978F10A6013ECA451ADDF4E Accuracy: -m0
Conclusion: CDDA 100%
Signature: 0CDE77CF6996DD330F01AF964AEC102283ABAFC0
FILE: 10 Sonata in F major Z810: II. Canzona - Grave - Allegro.flac
Size: 25708192 Hash: 65EF4A8AE6964A669F33953B05F78B92 Accuracy: -m0
Conclusion: CDDA 100%
Signature: B863CE321D6907B293799F7E5ECA719CF906C919
FILE: 09 Sonata in F major Z810: I. [Allegro] - Largo.flac
Size: 15096969 Hash: 149BB13D7073644FB72666467F0911D9 Accuracy: -m0
Conclusion: CDDA 92%
Signature: 9F4F0B7A6FF1C5F18D189CB11A6B67FE0E6ABDC8
FILE: 08 Sonata in C major Z808: II. Canzona - Allegro - Adagio.flac
Size: 24277976 Hash: 0869A5B3EB48581801EDF818F1E214AD Accuracy: -m0
Conclusion: CDDA 100%
Signature: 07F80E8B073D34513248EFB6F5927009A51D7C72
FILE: 07 Sonata in C major Z808: I. Vivace - Largo - Grave.flac
Size: 17350285 Hash: 2A8DA4E46C1D4D667C41C9C96B26ECC5 Accuracy: -m0
Conclusion: CDDA 100%
Signature: 8FDE604C08660C20DACF20CC50D73473F66AB630
FILE: 06 Sonata in G minor Z806: II. Largo - Adagio - Presto - Allegro - Adagio.flac
Size: 30355560 Hash: ED731242E90B8299772C40875062398D Accuracy: -m0
Conclusion: CDDA 99%
Signature: 50D0AAF3CB6008FB96C9E678486BB1AC59DAF24B
FILE: 05 Sonata in G minor Z806: I. [Andante] - Canzona.flac
Size: 16754525 Hash: 2D084C40CB20B08B3731D519DB8F37FD Accuracy: -m0
Conclusion: CDDA 99%
Signature: 1485EB97C93B040FE3019EDC2F22F9D6C7398C13
FILE: 04 Sonata in D minor Z805: II. Vivace - Largo.flac
Size: 25755957 Hash: 65EBD489AC2346BA864E659BAED5C988 Accuracy: -m0
Conclusion: CDDA 99%
Signature: 845F3ACC265AD414167260ADD74A7C190E31C0D6
FILE: 03 Sonata in D minor Z805: I. Adagio - Canzona - Adagio.flac
Size: 27203034 Hash: 0D115C2EC65734F45AF89EA546D34845 Accuracy: -m0
Conclusion: CDDA 100%
Signature: 507E7144AC767A574ED7633423FC090C084A8782
FILE: 02 Sonata in A minor Z804: II. Adagio - Canzona - Vivace - Grave.flac
Size: 25499296 Hash: A134C0B30E679D9C4380C49526F9F728 Accuracy: -m0
Conclusion: CDDA 100%
Signature: B7A13680FCDB7B8C48399CAFDB8D341F06EB93BC
FILE: 01 Sonata in A minor Z804: I. Grave - Largo.flac
Size: 17670777 Hash: 06A8FABA1026B15FF95742C28845D92E Accuracy: -m0
Conclusion: CDDA 100%
Signature: 55BA3E86995E5B69780F286EE44BBC25DD9B90EA

Скриншот спектра частот

Доп. информация

Релиз полностью готов к воспроизведению в аудиоплеере (я ориентировался на foobar2000)При скачивании, если необходимо, переименуйте папку, в которой будет находиться альбомБольшая просьба к скачавшим поддерживать раздачу! Помогайте другим, ведь вам тоже может понадобиться помощь!Не забываем говорить "Спасибо"!Комментарии приветствуются!
-



Показать сообщения:    

Текущее время: 04-Дек 17:17

Часовой пояс: UTC + 3


Вы не можете начинать темы
Вы не можете отвечать на сообщения
Вы не можете редактировать свои сообщения
Вы не можете удалять свои сообщения
Вы не можете голосовать в опросах
Вы не можете прикреплять файлы к сообщениям
Вы не можете скачивать файлы