Марина Абрамович: В присутствии художника / Marina Abramovic: The Artist Is Present (М. Эйкерс / Matthew Akers, Дж. Дюпре / Jeff Dupre) [2012, документальный, биография, история, DVDRip] MVO + Eng


Статистика раздачи [Обновить пиров]
Размер:  1.74 GB   |    Зарегистрирован:  8 месяцев 21 день   |    Скачан:  0 раз

Полного источника не было: Никогда

Личеров:  3  [  0 KB/s  ]   Подробная статистика пиров
 
   
 
 
 

[Цитировать]

Марина Абрамович: В присутствии художника
Marina Abramovic: The Artist Is Present
Год выпуска: 2012
Страна: США
Жанр: документальный, биография, история
Продолжительность: 01:41:22
Перевод: Профессиональный (многоголосый закадровый)
Русские субтитры: нет
Оригинальная аудиодорожка: английский
Режиссер: М. Эйкерс / Matthew Akers , Дж. Дюпре / Jeff Dupre
Описание: Югославская художница Марина Абрамович называет себя «бабушкой перформанса». И у нее есть на то все основания. Сегодня в этом виде актуального искусства ей, пожалуй, нет равных, а впервые она обратила на себя внимание арт-сообщества еще в 1974 году.
Документальный фильм Мэттью Эйкерса рассказывает о подготовке Марины к своей ретроспективной выставке в Музее современного искусства в Нью-Йорке (ставшей крупнейшим перформансом в истории MoMA). Ее посетители смогли не только увидеть, но и лично поучаствовать в реконструкциях самых знаковых и провокативных перформансов художницы, один из которых длился 736,5 часов (каждый желающий мог смотреть прямо в глаза Абрамович 30 минут, что приводило к самым непредсказуемым последствиям). Мало кто сможет повторить то, на что способна Марина. Но те, кому это удастся, поймут, что значит не только «присутствовать», но и «быть» здесь и сейчас.

Качество: DVDRip
Формат: AVI
Видео: Xvid 720x400 25fps 1 935 Kbps 0.269bpp
Аудио 1: Dolby AC3 48000Hz 6ch 256kbps Rus
Аудио 2: Dolby AC3 48000Hz 6ch 256kbps Eng

MediaInfo

General
Complete name : (Marina Abramovic) The Artist Is Present (Matthew Akers, Jeff Dupre, 2012) DVDRip (Rus, Eng).avi
Format : AVI
Format/Info : Audio Video Interleave
File size : 1.74 GiB
Duration : 1h 41mn
Overall bit rate : 2 461 Kbps
Movie name : (Marina Abramovic) The Artist Is Present (Matthew Akers, Jeff Dupre, 2012) DVDRip (Rus, Eng)
Writing application : VirtualDubModRus 1.5.10.2 (build 2542/release)
Video
ID : 0
Format : MPEG-4 Visual
Format profile : Advanced Simple@L5
Format settings, BVOP : 2
Format settings, QPel : No
Format settings, GMC : No warppoints
Format settings, Matrix : Default (MPEG)
Codec ID : XVID
Codec ID/Hint : XviD
Duration : 1h 41mn
Bit rate : 1 935 Kbps
Width : 720 pixels
Height : 400 pixels
Display aspect ratio : 16:9
Frame rate : 25.000 fps
Color space : YUV
Chroma subsampling : 4:2:0
Bit depth : 8 bits
Scan type : Progressive
Compression mode : Lossy
Bits/(Pixel*Frame) : 0.269
Stream size : 1.37 GiB (79%)
Writing library : XviD 65
Audio #1
ID : 1
Format : AC-3
Format/Info : Audio Coding 3
Mode extension : CM (complete main)
Format settings, Endianness : Big
Codec ID : 2000
Duration : 1h 41mn
Bit rate mode : Constant
Bit rate : 256 Kbps
Channel(s) : 6 channels
Channel positions : Front: L C R, Side: L R, LFE
Sampling rate : 48.0 KHz
Bit depth : 16 bits
Compression mode : Lossy
Stream size : 186 MiB (10%)
Alignment : Split accross interleaves
Interleave, duration : 40 ms (1.00 video frame)
Interleave, preload duration : 500 ms
Audio #2
ID : 2
Format : AC-3
Format/Info : Audio Coding 3
Mode extension : CM (complete main)
Format settings, Endianness : Big
Codec ID : 2000
Duration : 1h 41mn
Bit rate mode : Constant
Bit rate : 256 Kbps
Channel(s) : 6 channels
Channel positions : Front: L C R, Side: L R, LFE
Sampling rate : 48.0 KHz
Bit depth : 16 bits
Compression mode : Lossy
Stream size : 186 MiB (10%)
Alignment : Split accross interleaves
Interleave, duration : 40 ms (1.00 video frame)
Interleave, preload duration : 500 ms

Скриншоты



[teatrix.ru].t19234.torrent 
Торрент: Зарегистрирован [ 2016-03-18 12:52 ] · 779B1C4DB7F75A6F86455D93F80D724C126C6733

Скачать .torrent

Скачать

18 KB

Статус: проверено
Скачан: 0 раз
Размер: 1.74 GB
terms.php



Быстрый ответ

Имя:

      
Для отправки сообщений необходимо включить JavaScript
Показать сообщения:    

Текущее время: 09-Дек 03:06

Часовой пояс: UTC + 3


Вы можете начинать темы
Вы можете отвечать на сообщения
Вы не можете редактировать свои сообщения
Вы не можете удалять свои сообщения
Вы не можете голосовать в опросах
Вы не можете прикреплять файлы к сообщениям
Вы можете скачивать файлы