(Classical) Pfitzner: Symphony in C major • Schumann: Konzertstuck, Op.86 • Mendelsssohn: Die Heimkehr aus der Fremde • Webern: Langsamer Satz - Seattle Symphony, Gerard Schwarz - 2012, FLAC (image+.cue) lossless


 

[Цитировать]

Pfitzner: Symphony in C major • Schumann: Konzertstück, Op.86 • Mendelsssohn: Die Heimkehr aus der Fremde • Webern: Langsamer Satz - Seattle Symphony, Gerard Schwarz
Жанр: Classical
Год издания диска: 2012
Издатель (лейбл): Naxos
Номер по каталогу: 8.572770
Дата записи: 1989-1996
Аудиокодек: FLAC
Тип рипа: image+.cue
Битрейт аудио: lossless
Продолжительность: 77:47
Источник: собственный рип
Наличие сканов в содержимом раздачи: да
Треклист:
Robert Schumann (1810-1856)
[1]-[3] Konzertstück, Op. 86
Felix Mendelsssohn (1809-1847)
[4] Die Heimkehr aus der Fremde – Liederspiel, Op.89: Overture
Robert Schumann
[5]-[6] Two Etudes Symphoniques, Op.13 (orch. Tchaikovsky)
Johannes Brahms (1833-1897)
[7]-[10] Hungarian Dances Nos. 5, 6, 11 and 16
(orch. Albert Parlow)
Anton Webern (1883-1945)
[11] Langsamer Satz (arr. Gerard Schwarz)
Hans Pfitzner (1860-1949)
[12]-[14] Symphony in C major, Op.46
Исполнители:
Seattle Symphony
Gerard Schwarz

Лог создания рипа

Exact Audio Copy V1.0 beta 3 from 29. August 2011
EAC extraction logfile from 3. October 2014, 1:52
Seattle Symphony, Gerard Schwarz / Pfitzner - Symphony in C; Schumann - Konzertstuck
Used drive : HL-DT-STDVDRAM GU70N Adapter: 0 ID: 0
Read mode : Secure
Utilize accurate stream : Yes
Defeat audio cache : Yes
Make use of C2 pointers : No
Read offset correction : 48
Overread into Lead-In and Lead-Out : No
Fill up missing offset samples with silence : Yes
Delete leading and trailing silent blocks : No
Null samples used in CRC calculations : Yes
Used interface : Native Win32 interface for Win NT & 2000
Used output format : User Defined Encoder
Selected bitrate : 128 kBit/s
Quality : High
Add ID3 tag : No
Command line compressor : C:\Program Files (x86)\Exact Audio Copy\Flac\flac.exe
Additional command line options : -V -8 -T "Date=%year%" -T "Genre=%genre%" %source%
TOC of the extracted CD
Track | Start | Length | Start sector | End sector
---------------------------------------------------------
1 | 0:00.00 | 7:20.72 | 0 | 33071
2 | 7:20.72 | 5:11.73 | 33072 | 56469
3 | 12:32.70 | 5:52.18 | 56470 | 82887
4 | 18:25.13 | 7:12.37 | 82888 | 115324
5 | 25:37.50 | 1:51.07 | 115325 | 123656
6 | 27:28.57 | 6:17.38 | 123657 | 151969
7 | 33:46.20 | 2:55.48 | 151970 | 165142
8 | 36:41.68 | 3:53.09 | 165143 | 182626
9 | 40:35.02 | 3:19.66 | 182627 | 197617
10 | 43:54.68 | 2:50.20 | 197618 | 210387
11 | 46:45.13 | 13:43.05 | 210388 | 272117
12 | 60:28.18 | 7:18.37 | 272118 | 305004
13 | 67:46.55 | 4:02.62 | 305005 | 323216
14 | 71:49.42 | 5:55.33 | 323217 | 349874
Range status and errors
Selected range
Filename C:\temp\Pfitzner - Symphony in C; Schumann - Konzertstuck for Four Horns\Pfitzner - Symphony in C; Schumann - Konzertstuck.wav
Peak level 99.9 %
Extraction speed 2.3 X
Range quality 100.0 %
Test CRC DFFA57FD
Copy CRC DFFA57FD
Copy OK
No errors occurred
AccurateRip summary
Track 1 accurately ripped (confidence 3) [1085401B] (AR v2)
Track 2 accurately ripped (confidence 3) [5C0955D3] (AR v2)
Track 3 accurately ripped (confidence 3) [4E6FC653] (AR v2)
Track 4 accurately ripped (confidence 3) [510C5CFB] (AR v2)
Track 5 accurately ripped (confidence 3) [33B92566] (AR v2)
Track 6 accurately ripped (confidence 3) [1CCD0FFB] (AR v2)
Track 7 accurately ripped (confidence 3) [693242C1] (AR v2)
Track 8 accurately ripped (confidence 3) [37F984A1] (AR v2)
Track 9 accurately ripped (confidence 3) [220E0B50] (AR v2)
Track 10 accurately ripped (confidence 3) [86B8CFD9] (AR v2)
Track 11 accurately ripped (confidence 3) [849843DE] (AR v2)
Track 12 accurately ripped (confidence 3) [09E80B52] (AR v2)
Track 13 accurately ripped (confidence 3) [7381EE0A] (AR v2)
Track 14 accurately ripped (confidence 3) [A7F308DC] (AR v2)
All tracks accurately ripped
End of status report
==== Log checksum 8A98D8C52B9268370159FAFA77FD29589D541ABAC3EFFA94B5F8D0EF4C7485FB ====



Показать сообщения:    

Текущее время: 08-Дек 19:12

Часовой пояс: UTC + 3


Вы не можете начинать темы
Вы не можете отвечать на сообщения
Вы не можете редактировать свои сообщения
Вы не можете удалять свои сообщения
Вы не можете голосовать в опросах
Вы не можете прикреплять файлы к сообщениям
Вы не можете скачивать файлы