(Classical/Piano) [LP] [24/48] В. А. Моцарт/W. A. Mozart - Sonata №11 In A major, KV 331; Fantasia in C minor, KV 396; Concerto №25 for Piano (/Э. Фишер/E. Fischer and The London Philarmonia orchestra, cond. J. Krips) - 1980


Статистика раздачи [Обновить пиров]
Размер:  278 MB   |    Зарегистрирован:  8 месяцев 22 дня   |    Скачан:  0 раз

Полного источника не было: Никогда

Личеров:  3  [  0 KB/s  ]   Подробная статистика пиров
 
   
 
 
 

[Цитировать]

Из Сокровищницы Мирового Исполнительского Искусства: В. А. Моцарт
Эдвин Фишер (фортепиан) и Лондонский Оркестр "Филармония", дир. Й. Крипс

Жанр: Фортепиано
Носитель: LP
Год выпуска: 1980
Лейбл: Melodya
Страна-производитель: USSR
Аудио кодек: FLAC
Тип рипа: image+.cue
Формат записи: 32/192
Формат раздачи: 24/48
Продолжительность: 37.34 min
Источник оцифровки: автором раздачи
Код класса состояния винила: Mint
Устройство воспроизведения: Электроника ЭП 017С
Головка звукоснимателя: Audio-Technica AT95
Предварительный усилитель: Бриг-001
АЦП: VIA HD audio device
Программа-оцифровщик: Izotope RX III Advanced
Обработка: Manual-Треклист:
W.A.Mozart (1756-1791)
Side One:
Sonata №11 In A major, KV 331
01. Andalte Graziozo
02. Menuetto
03. Alla Turca.Allegretto
Fantasia in C minor, KV 396
Archives recordings,1930
Side Two:
Concerto №25 for Piano and Orchestra in C major, KV 503
04. Allegro maestoso
05. Andante
06. (Allegretto)
Archives recordings,1947

Спектр+АЧХ+Уровень записи


DR=13

foobar2000 1.1.10 / Dynamic Range Meter 1.1.1
log date: 2014-10-13 09:17:24
--------------------------------------------------------------------------------
Analyzed: Edwin Fischer / Piano
--------------------------------------------------------------------------------
DR Peak RMS Duration Track
--------------------------------------------------------------------------------
DR16 -0.21 dB -22.07 dB 7:37 ?-Andalte Graziozo
DR14 -3.33 dB -22.13 dB 3:33 ?-Menuetto
DR14 0.00 dB -19.04 dB 2:58 ?-Alla Turca.Allegretto
DR15 -1.71 dB -23.00 dB 7:42 ?-Allegro maestoso
DR12 -1.14 dB -18.07 dB 7:28 ?-Andante
DR10 -0.54 dB -13.14 dB 8:16 ?-(Allegretto)
--------------------------------------------------------------------------------
Number of tracks: 6
Official DR value: DR13
Samplerate: 48000 Hz
Channels: 1
Bits per sample: 24
Bitrate: 729 kbps
Codec: FLAC
================================================================================

Back,Inner & Disc





[teatrix.ru].t19236.torrent 
Торрент: Зарегистрирован [ 2016-03-18 12:52 ] · 39CC8B34D7F840C74A9CBFB8EC024754B3D89735

Скачать .torrent

Скачать

12 KB

Статус: проверено
Скачан: 0 раз
Размер: 278 MB
terms.php



Быстрый ответ

Имя:

      
Для отправки сообщений необходимо включить JavaScript
Показать сообщения:    

Текущее время: 09-Дек 22:24

Часовой пояс: UTC + 3


Вы можете начинать темы
Вы можете отвечать на сообщения
Вы не можете редактировать свои сообщения
Вы не можете удалять свои сообщения
Вы не можете голосовать в опросах
Вы не можете прикреплять файлы к сообщениям
Вы можете скачивать файлы